<?xml version="1.0" standalone="no"?>
<!DOCTYPE svg PUBLIC "-//W3C//DTD SVG 1.1//EN" "http://www.w3.org/Graphics/SVG/1.1/DTD/svg11.dtd" >
<svg xmlns="http://www.w3.org/2000/svg">
<metadata>
This is a custom SVG webfont generated by Font Squirrel.
Copyright   : Copyright c 2013 by Alessio Laiso alessiolaisogmailcom Licensed under the SIL Open Font License Version 11
Designer    : Alessio Laiso
</metadata>
<defs>
<font id="AleoRegular" horiz-adv-x="1582" >
<font-face units-per-em="2048" ascent="1649" descent="-399" />
<missing-glyph horiz-adv-x="440" />
<glyph unicode=" "  horiz-adv-x="440" />
<glyph unicode="&#x09;" horiz-adv-x="440" />
<glyph unicode="&#xa0;" horiz-adv-x="440" />
<glyph unicode="!" horiz-adv-x="397" d="M71 113q0 27 9.5 50t26.5 40.5t40.5 28t50 10.5t50 -10.5t41 -28t27.5 -41t10 -49.5q0 -28 -10 -51t-27.5 -40.5t-41 -27t-50 -9.5t-50 9.5t-40.5 27t-26.5 40.5t-9.5 51zM115 882v585h173v-585q0 -46 -1.5 -90t-4.5 -89t-8 -91.5t-11 -99.5h-124q-6 53 -10.5 99.5 t-7.5 91.5t-4.5 89t-1.5 90z" />
<glyph unicode="&#x22;" horiz-adv-x="676" d="M89 1170v297h159v-297l-17 -158q-3 -33 -17 -51t-46 -18q-27 0 -41.5 18t-21.5 51zM430 1170v297h159v-297l-17 -158q-3 -33 -17 -51t-46 -18q-27 0 -41.5 18t-21.5 51z" />
<glyph unicode="#" horiz-adv-x="1165" d="M48 485q0 5 0.5 11.5t1.5 12.5l8 58h209l67 334h-238l14 76q5 30 23.5 44t57.5 14h162l74 367q6 31 28 48t53 17h82l-86 -432h253l86 432h81q26 0 42.5 -15t16.5 -40q0 -8 -1 -13l-75 -364h217l-13 -77q-5 -30 -24 -43.5t-58 -13.5h-141l-67 -334h184q25 0 38 -11.5 t13 -41.5q0 -5 -0.5 -10.5t-1.5 -11.5l-10 -59h-242l-86 -433h-83q-24 0 -40 17.5t-16 44.5q0 4 0.5 8t1.5 9l72 354h-253l-72 -363q-8 -38 -31.5 -54t-52.5 -16h-81l87 433h-150q-24 0 -37 12t-13 40zM418 567h253l66 334h-253z" />
<glyph unicode="$" horiz-adv-x="1055" d="M34 175l54 84q7 11 20.5 18.5t27.5 7.5q19 0 44 -19.5t60.5 -44.5t85.5 -49t119 -32l38 544q-72 22 -141 49t-123.5 70.5t-88 109.5t-33.5 165q0 75 29.5 146t85 126.5t137.5 91t189 39.5l10 147q2 19 15.5 34.5t35.5 15.5h68l-15 -202q108 -13 185.5 -55.5t139.5 -101.5 l-44 -68q-20 -31 -47 -30q-14 0 -35.5 12.5t-51 29.5t-68.5 34t-89 24l-34 -496q74 -23 145.5 -49t129 -68t93 -105t35.5 -158q0 -92 -31 -173t-90 -142t-144.5 -99.5t-194.5 -44.5l-12 -181q-2 -19 -16 -34t-36 -15h-67l15 232q-124 11 -225.5 60.5t-175.5 126.5zM269 1097 q0 -49 17.5 -85.5t48.5 -64t71.5 -48t89.5 -37.5l30 462q-67 -6 -115.5 -26.5t-79.5 -51.5t-46.5 -69t-15.5 -80zM561 140q67 6 118.5 29.5t87 59t53.5 83.5t18 105q0 51 -19 88t-52 63.5t-77 46t-94 35.5z" />
<glyph unicode="%" horiz-adv-x="1567" d="M55 1113q0 88 24.5 156.5t69 116t103 72t128.5 24.5q69 0 128.5 -24.5t103 -72t69 -116t25.5 -156.5q0 -86 -27 -154t-71.5 -114.5t-104 -71t-123.5 -24.5q-70 0 -128.5 24.5t-103 71t-69 114.5t-24.5 154zM152 0l1067 1431q13 17 28 26.5t39 9.5h131l-1072 -1437 q-10 -13 -24.5 -21.5t-33.5 -8.5h-135zM199 1113q0 -67 13.5 -113.5t38 -75.5t58 -42t71.5 -13t71 13t58.5 42t39.5 75.5t14 113.5q0 68 -14 115t-39.5 77t-58.5 43.5t-71 13.5t-71.5 -13.5t-58 -43.5t-38 -77t-13.5 -115zM867 346q0 88 24.5 157t69 116.5t103 72 t128.5 24.5q69 0 128 -24.5t103 -72t69 -116.5t25 -157q0 -86 -27 -153.5t-71.5 -114t-103.5 -71t-123 -24.5q-70 0 -128.5 24.5t-103 71t-69 114t-24.5 153.5zM1011 346q0 -67 13.5 -113t38 -75t58 -42t71.5 -13t71 13t58.5 42t39.5 75t14 113q0 68 -14 115.5t-39.5 77 t-58.5 43t-71 13.5t-71.5 -13.5t-58 -43t-38 -77t-13.5 -115.5z" />
<glyph unicode="&#x26;" horiz-adv-x="1434" d="M52 391q0 72 24 136t66.5 118t101 97t128.5 74q-62 79 -92 153.5t-30 154.5q0 75 27 140.5t78.5 114t124.5 77t164 28.5q81 0 147.5 -26t115 -69t77 -100t32.5 -119l-114 -22q-5 -1 -9 -1q-13 0 -25 7t-17 26q-7 27 -23 55.5t-41 52t-60.5 38.5t-82.5 15q-51 0 -92 -16 t-70 -45.5t-45 -69t-16 -85.5q0 -36 8.5 -68.5t26 -66t45 -68.5t66.5 -74l422 -429q39 69 62 144t31 151q2 19 12.5 30.5t28.5 11.5h113q-2 -118 -38 -231.5t-103 -213.5l307 -311h-176q-30 0 -48.5 7t-40.5 30l-148 148q-96 -93 -221.5 -147t-275.5 -54q-82 0 -161 27.5 t-141 80t-100 128.5t-38 171zM238 405q0 -67 24.5 -117t64.5 -85t91 -53t104 -18q115 0 206 42t161 112l-433 437q-109 -58 -163.5 -140t-54.5 -178z" />
<glyph unicode="'" horiz-adv-x="335" d="M89 1170v297h159v-297l-17 -158q-3 -33 -17 -51t-46 -18q-27 0 -41.5 18t-21.5 51z" />
<glyph unicode="(" horiz-adv-x="491" d="M65 644q0 124 15 243t48.5 235t87 231.5t130.5 234.5l81 -50q11 -7 18.5 -16.5t7.5 -23.5q0 -15 -11 -35q-108 -186 -163.5 -393t-55.5 -426t56.5 -425.5t162.5 -393.5q6 -11 8.5 -19.5t2.5 -16.5q0 -14 -7.5 -23.5t-18.5 -16.5l-81 -49q-77 118 -130.5 233.5t-87 232.5 t-48.5 235t-15 243z" />
<glyph unicode=")" horiz-adv-x="492" d="M42 -211q0 8 2 16.5t8 19.5q106 187 162.5 393.5t56.5 425.5t-55.5 426t-163.5 393q-10 19 -10 35q0 14 7 23.5t19 16.5l80 50q77 -119 131 -234.5t87 -231.5t48.5 -235t15.5 -243q0 -125 -15.5 -243t-48.5 -235t-87 -232.5t-131 -233.5l-80 49q-11 7 -18.5 16.5 t-7.5 23.5z" />
<glyph unicode="*" horiz-adv-x="753" d="M67 1341l45 77l177 -102q36 -20 58 -53q-9 18 -12.5 37t-3.5 39v203h90v-202q0 -42 -14 -73q11 15 24.5 26.5t31.5 22.5l176 101l45 -77l-176 -102q-17 -11 -34 -17.5t-36 -8.5q18 -2 35 -7.5t35 -16.5l177 -104l-45 -76l-177 102q-18 11 -32.5 22.5t-26.5 27.5 q16 -34 17 -74v-202h-90v201q0 19 2.5 37t9.5 34q-20 -26 -54 -46l-176 -101l-45 76l176 103q37 22 74 24q-20 2 -38 8t-36 18z" />
<glyph unicode="+" horiz-adv-x="1094" d="M56 618v139h415v437h150v-437h416v-139h-416v-440h-150v440h-415z" />
<glyph unicode="," horiz-adv-x="427" d="M94 126q0 24 9 44.5t24.5 36.5t38 25.5t49.5 9.5q31 0 55 -11.5t40 -31.5t24 -46t8 -57q0 -46 -13.5 -95.5t-38 -98t-60.5 -95t-83 -85.5l-30 30q-13 12 -14 29q0 13 15 28q10 11 26 30t32.5 43.5t30 54t19.5 63.5h-13q-27 0 -48.5 9t-37 26t-24.5 40t-9 51z" />
<glyph unicode="-" horiz-adv-x="699" d="M97 537v154h506v-154h-506z" />
<glyph unicode="." horiz-adv-x="432" d="M91 113q0 27 10 50t26.5 40.5t40 28t50.5 10.5t50.5 -10.5t41 -28t27 -41t9.5 -49.5q0 -28 -9.5 -51t-27 -40.5t-41 -27t-50.5 -9.5t-50.5 9.5t-40 27t-26.5 40.5t-10 51z" />
<glyph unicode="/" horiz-adv-x="861" d="M34 -92l615 1533q13 33 38 50t58 17h77l-611 -1530q-14 -36 -42.5 -53t-57.5 -17h-77z" />
<glyph unicode="0" horiz-adv-x="1207" d="M72 733.5q0 192.5 41 333.5t112.5 234t168 138t209.5 45q112 0 209.5 -45t169.5 -138t113.5 -234t41.5 -333.5t-41.5 -333.5t-113.5 -233t-169.5 -137t-209.5 -45q-113 0 -209.5 45t-168 137t-112.5 233t-41 333.5zM260 733q0 -168 28 -281.5t75.5 -183t110 -100 t130 -30.5t130 30.5t110 100t75.5 183t28 281.5t-28 282t-75.5 184t-110 100t-130 30t-130 -30t-110 -100t-75.5 -184t-28 -282z" />
<glyph unicode="1" horiz-adv-x="953" d="M39 1093l436 377h149v-1331q243 -18 260 -21q29 -6 28 -36v-82h-786v60v22q0 30 29 36l286 21v1001q0 45 3 91l-262 -224q-19 -15 -37 -16q-34 0 -49 23z" />
<glyph unicode="2" horiz-adv-x="1088" d="M50 0v63q0 19 8 39.5t25 38.5l470 472q58 59 106 114t82.5 110t53 112t18.5 121.5t-20.5 113t-56.5 80.5t-84 48t-103 16t-102.5 -16.5t-83.5 -46t-61.5 -69.5t-35.5 -88q-8 -30 -24.5 -43t-42.5 -13q-5 0 -10.5 0.5t-13.5 1.5l-95 17q14 100 55 177.5t104 129.5 t144.5 79t175.5 27q93 0 174 -27.5t140 -80.5t92.5 -128.5t33.5 -171.5q0 -82 -24.5 -152t-66.5 -133.5t-96.5 -124t-116.5 -122.5l-386 -395q41 11 83 18t81 7h402q9 108 11 118q3 15 15 25t27 10h99v-168v-33v-126h-977z" />
<glyph unicode="3" horiz-adv-x="1085" d="M41 367l78 32q22 9 43 10q20 0 36 -9t24 -27q2 -4 4 -9l4 -10q14 -30 35 -67t55.5 -70t86.5 -55.5t128.5 -22.5t134.5 25t96.5 65t58 89.5t19.5 97.5q0 59 -16 108t-57.5 85t-114.5 56.5t-188 20.5v132q93 1 159 20.5t108 53.5t61 81t19 104q0 63 -20 110.5t-54.5 78 t-82.5 46t-103 15.5t-102.5 -16.5t-83.5 -45.5t-60.5 -69.5t-37.5 -87.5q-8 -30 -24.5 -43t-41.5 -13q-5 0 -11 0.5t-13 1.5l-95 16q14 100 55 177.5t104 130t144.5 79.5t175.5 27q93 0 172 -26.5t136 -76t88.5 -119t31.5 -154.5q0 -70 -18 -124.5t-51 -96t-80 -70.5 t-106 -46q143 -38 215.5 -127t72.5 -223q0 -101 -38.5 -182t-105 -138t-155 -87t-189.5 -30q-117 0 -200 29t-140.5 80t-94 121.5t-62.5 152.5z" />
<glyph unicode="4" horiz-adv-x="1197" d="M48 520l714 947h170v-938h222v-104q0 -16 -9.5 -27.5t-30.5 -11.5h-182v-386h-161v386h-650q-20 0 -35 12t-19 29zM246 529h525v606q0 27 1.5 57.5t6.5 62.5z" />
<glyph unicode="5" horiz-adv-x="1039" d="M42 138l55 78q18 27 49 27q19 0 45.5 -16t63.5 -35.5t86.5 -35.5t118.5 -16q77 0 138 24.5t104.5 70.5t67.5 109.5t24 141.5q0 69 -20 124.5t-60.5 94t-101 60t-141.5 21.5q-55 0 -114.5 -9t-123.5 -29l-114 33l119 686h695v-79q0 -39 -24.5 -64.5t-83.5 -25.5h-460 l-68 -385q115 25 212 25q115 0 202.5 -34t147 -93t89.5 -140t30 -176q0 -117 -41 -211.5t-112 -161.5t-167.5 -102.5t-207.5 -35.5q-65 0 -124.5 12.5t-110.5 34t-95 49.5t-78 58z" />
<glyph unicode="6" horiz-adv-x="1100" d="M57 484q0 96 43 205t137 234l371 500q14 18 40 31t59 13h161l-509 -644q52 36 115.5 56t137.5 20q88 0 167 -29t138.5 -85t94.5 -137.5t35 -185.5q0 -101 -37 -188.5t-103 -152t-159.5 -101t-204.5 -36.5t-200.5 35t-153 100t-98 158t-34.5 207zM233 453 q0 -71 20.5 -129.5t60 -100.5t96.5 -65t130 -23q74 0 133 23.5t101.5 65.5t65.5 99.5t23 125.5q0 72 -22.5 129.5t-63.5 98t-98 62t-126 21.5q-74 0 -133.5 -25t-100.5 -67.5t-63.5 -98.5t-22.5 -116z" />
<glyph unicode="7" horiz-adv-x="1112" d="M63 1110v357h998v-82q0 -51 -24 -95l-607 -1225q-33 -65 -100 -65h-130l616 1210q29 54 58 88h-655q-11 -140 -14 -153q-7 -35 -42 -35h-100z" />
<glyph unicode="8" horiz-adv-x="1100" d="M57 401q0 141 74 233t211 131q-116 43 -174.5 128.5t-58.5 204.5q0 81 31.5 151.5t90 122.5t140 82t181.5 30q99 0 181 -30t140.5 -82t90 -122.5t31.5 -151.5q0 -119 -59 -204.5t-174 -128.5q137 -39 211 -130.5t74 -233.5q0 -96 -36.5 -173t-101.5 -131.5t-156 -83.5 t-201 -29t-201 29t-156.5 83.5t-101.5 131.5t-36 173zM246 404q0 -61 21 -111.5t60.5 -87t96 -56.5t128.5 -20t128.5 20t96 56.5t60.5 87t21 111.5q0 76 -25 130t-67.5 87.5t-98 49.5t-115.5 16t-115.5 -16t-98 -49.5t-67.5 -87.5t-25 -130zM287 1095q0 -50 14 -97.5 t46 -83.5t82.5 -58t122.5 -22t122.5 22t82 58t46 83t14.5 98t-17 96t-50 79t-83 53t-115.5 19t-115 -19t-82.5 -53t-50 -79t-17 -96z" />
<glyph unicode="9" horiz-adv-x="1070" d="M57 1023q0 96 36 180t100.5 146.5t153.5 98.5t196 36q105 0 191 -35t147.5 -97.5t95 -149.5t33.5 -192q0 -63 -12 -120t-34.5 -111.5t-53.5 -108.5t-71 -111l-358 -516q-13 -19 -37.5 -31t-56.5 -12h-168l447 585q23 30 42 56.5t36 52.5q-56 -45 -126.5 -68.5 t-149.5 -23.5q-83 0 -157 27.5t-130.5 81.5t-90 132.5t-33.5 179.5zM240 1036q0 -70 20 -124.5t57 -92.5t91 -57.5t120 -19.5q74 0 131 24.5t96 64t59.5 92t20.5 108.5q0 69 -22 124.5t-61 94.5t-93 60t-118 21q-68 0 -124 -22t-95 -61t-60.5 -93t-21.5 -119z" />
<glyph unicode=":" horiz-adv-x="423" d="M87 113q0 27 9.5 50t26.5 40.5t40.5 28t50.5 10.5t50.5 -10.5t41 -28t27 -41t9.5 -49.5q0 -28 -9.5 -51t-27 -40.5t-41 -27t-50.5 -9.5t-50.5 9.5t-40.5 27t-26.5 40.5t-9.5 51zM87 881q0 27 9.5 50t26.5 40.5t40.5 28t50.5 10.5t50.5 -10.5t41 -28t27 -41t9.5 -49.5 q0 -28 -9.5 -51t-27 -40.5t-41 -27t-50.5 -9.5t-50.5 9.5t-40.5 27t-26.5 40.5t-9.5 51z" />
<glyph unicode=";" horiz-adv-x="422" d="M87 881q0 27 9.5 50t26.5 40.5t40.5 28t50.5 10.5t50.5 -10.5t41 -28t27 -41t9.5 -49.5q0 -28 -9.5 -51t-27 -40.5t-41 -27t-50.5 -9.5t-50.5 9.5t-40.5 27t-26.5 40.5t-9.5 51zM93 126q0 24 9 44.5t24.5 36.5t38 25.5t49.5 9.5q31 0 55 -11.5t40 -31.5t24 -46t8 -57 q0 -46 -13.5 -95.5t-38 -98t-60.5 -95t-83 -85.5l-30 30q-13 12 -14 29q0 13 15 28q10 11 26 30t32 43.5t30 54t20 63.5h-13q-27 0 -48.5 9t-37 26t-24.5 40t-9 51z" />
<glyph unicode="&#x3c;" horiz-adv-x="930" d="M62 651v76l793 411v-130q0 -17 -8 -30t-29 -24l-460 -233q-20 -11 -43 -19t-49 -14q26 -5 49 -13t43 -19l460 -232q20 -10 28.5 -23.5t8.5 -29.5v-131z" />
<glyph unicode="=" horiz-adv-x="1077" d="M99 450v138h880v-138h-880zM99 793v138h880v-138h-880z" />
<glyph unicode="&#x3e;" horiz-adv-x="932" d="M79 240v131q0 16 8 29.5t29 23.5l459 232q20 10 42.5 18.5t48.5 13.5q-26 6 -48 14t-43 19l-459 233q-20 10 -28.5 23t-8.5 31v130l791 -411v-76z" />
<glyph unicode="?" horiz-adv-x="841" d="M44 1336q32 30 70.5 56.5t84 47t98 32.5t114.5 12q81 0 150 -23.5t119 -66.5t78.5 -104.5t28.5 -138.5q0 -78 -23 -134t-58 -98.5t-77 -74t-78.5 -59t-62.5 -55.5t-30 -61l-19 -157h-125l-12 170v11q0 43 23 76.5t58.5 62.5t76 58.5t75.5 64.5t58 80t23 107 q0 44 -17 79.5t-47 61t-70.5 38.5t-86.5 13q-62 0 -106.5 -15t-75.5 -33.5t-50 -34t-31 -15.5q-26 0 -40 24zM245 113q0 27 9.5 50t26.5 40.5t40.5 28t50 10.5t50 -10.5t41 -28t27.5 -41t10 -49.5q0 -28 -10 -51t-27.5 -40.5t-41 -27t-50 -9.5t-50 9.5t-40.5 27t-26.5 40.5 t-9.5 51z" />
<glyph unicode="@" horiz-adv-x="1637" d="M62 582q0 112 28.5 215t79.5 192.5t123 164t160 127t189 82t212 29.5q94 0 184 -20.5t170.5 -60.5t148 -99t116.5 -135.5t76 -170t27 -203.5q0 -111 -31.5 -204t-86 -162t-129 -108t-160.5 -39q-80 0 -130 38.5t-63 118.5q-59 -83 -129 -118.5t-150 -35.5 q-61 0 -106 20.5t-75.5 58t-45 89t-14.5 110.5q0 87 33 175.5t98.5 160t163.5 116.5t226 45q69 0 120.5 -11t97.5 -31l-95 -370q-19 -77 -20 -127q0 -37 9.5 -61t25 -38t36.5 -19t45 -5q50 0 95 29t79.5 81t54.5 125t20 162q0 141 -45.5 248t-125 178t-187.5 106.5 t-233 35.5q-137 0 -257 -52.5t-209 -144.5t-140 -218t-51 -274q0 -174 54.5 -306t149.5 -221t222.5 -134t273.5 -45q156 0 275 34t206 86q15 9 28 9q22 0 32 -24l25 -68q-110 -74 -249.5 -116t-316.5 -42t-329.5 56.5t-265 162.5t-176.5 259.5t-64 348.5zM599 476 q0 -74 33.5 -118.5t100.5 -44.5q32 0 64 10.5t62.5 36t55.5 69.5t42 111l78 302q-40 9 -87 9q-77 0 -141 -32.5t-110 -84.5t-72 -119.5t-26 -138.5z" />
<glyph unicode="A" d="M51 0v81q0 28 27 34l82 24l531 1328h202l530 -1328l82 -24q27 -6 27 -34v-81h-421v81q0 28 28 35l84 23l-115 296h-633l-115 -296l84 -23q28 -7 28 -35v-81h-421zM530 579h523l-217 563q-23 55 -44 138q-25 -90 -43 -139z" />
<glyph unicode="B" horiz-adv-x="1290" d="M69 0v88q0 32 30 38l117 24v1168q-98 19 -117 23q-31 6 -30 38v88h615q392 0 487 -222q30 -72 30 -143.5t-17 -121.5t-50 -93q-73 -90 -208 -132q324 -65 324 -335q0 -191 -134 -304q-138 -116 -381 -116h-666zM415 158h317q245 0 304 158q18 48 19 107q0 114 -80.5 180 t-243.5 66h-316v-511zM415 810h262q245 0 307 148q19 47 20 103q0 129 -78 189.5t-242 60.5h-269v-501z" />
<glyph unicode="C" horiz-adv-x="1301" d="M46 733q0 333 205 542t543 209q174 0 453 -106v-114v-228h-99q-35 0 -42 35q-3 12 -9 93t-7 92q-171 54 -310 54q-236 0 -382 -154q-150 -158 -149 -423q0 -266 147 -426q138 -152 359 -152h3q128 0 193 24q100 37 182 109q17 15 33.5 15t29.5 -13l78 -85 q-190 -221 -529 -221q-315 0 -507 209q-191 207 -192 540z" />
<glyph unicode="D" horiz-adv-x="1521" d="M70 0v88q0 32 30 38l117 24v1168q-98 19 -117 23q-31 6 -30 38v88h676q325 0 524 -201q199 -204 199 -533q0 -165 -52 -300t-147 -231q-200 -202 -524 -202h-676zM417 161h329q239 0 378 151q142 153 142 421q0 135 -37 241.5t-105 180.5q-138 152 -378 152h-329v-1146z " />
<glyph unicode="E" horiz-adv-x="1202" d="M70 0v88q0 32 30 38l117 24v1168q-98 19 -117 23q-31 6 -30 38v88h1051v-354h-98q-36 0 -43 36q-2 9 -14 157h-549v-488h540v-155h-540v-501h550q11 136 13 145q7 35 43 35h98v-342h-1051z" />
<glyph unicode="F" horiz-adv-x="1197" d="M70 0v88q0 32 30 38l117 24v1168q-98 19 -117 23q-31 6 -30 38v88h147h939v-354h-99q-35 0 -42 36q-2 9 -15 157h-583v-513h557v-162h-557v-481q26 -5 117 -24q31 -6 30 -38v-88h-494z" />
<glyph unicode="G" horiz-adv-x="1400" d="M46 733q0 338 203 543q206 208 548 208q239 0 518 -106v-342h-98q-36 0 -43 35q-2 15 -16 185q-48 15 -78 24q-116 32 -264.5 32t-249 -40.5t-171.5 -115.5q-146 -157 -146 -423q0 -274 150 -433q147 -156 387 -156q201 0 364 86v324h-227q-19 0 -31 11.5t-12 27.5v113 h450v-564q-219 -158 -554 -158h-4q-319 0 -522 207q-204 210 -204 542z" />
<glyph unicode="H" horiz-adv-x="1616" d="M69 0v88q0 32 30 38l117 24v1168q-98 19 -122.5 24.5t-24.5 36.5v87h494v-87q0 -32 -22 -36.5t-125 -24.5v-505h790v505q-98 19 -122.5 24.5t-24.5 36.5v87h495v-87q1 -32 -31 -38l-117 -23v-1168q99 -19 123.5 -24.5t24.5 -37.5v-88h-495v88q0 32 31 38l116 24v518h-790 v-518q147 -30 147 -62v-88h-494z" />
<glyph unicode="I" horiz-adv-x="625" d="M69 0v88q0 32 30 38l117 24v1168q-98 19 -122.5 24.5t-24.5 36.5v87h494v-87q0 -32 -32 -38l-116 -23v-1168q99 -19 123.5 -24.5t24.5 -37.5v-88h-494z" />
<glyph unicode="J" horiz-adv-x="905" d="M55 12q9 130 22 143t33 13t51 -9t82 -9q284 0 283 353v815q-118 19 -136 23q-31 6 -31 38v88h512v-88q0 -32 -30 -38l-117 -23v-811q0 -378 -264 -488q-85 -36 -189 -36q-1 0 -3 1q-105 0 -213 28z" />
<glyph unicode="K" horiz-adv-x="1455" d="M69 0v88q0 32 30 38l117 24v1168q-98 19 -117 23q-31 6 -30 38v88h493v-88q0 -32 -32 -38q-93 -19 -116 -23v-494h74q69 0 106 43l411 465q-73 14 -90 18q-29 6 -28 35v82h462l3 -77q0 -32 -31 -38q-17 -4 -95 -24l-436 -492q-45 -50 -81 -67q45 -14 95 -74l464 -553 q86 -17 103 -21q31 -6 31 -38v-83h-481v82q0 30 28 36q11 2 94 18l-425 489q-36 39 -63 43t-51 4h-90v-522q34 -7 116 -24q32 -6 32 -38v-88h-493z" />
<glyph unicode="L" horiz-adv-x="1167" d="M69 0v88q0 9 4 17t11 13.5t16 7.5l116 23v1169q-99 20 -116 23q-13 3 -22 13.5t-9 24.5v88h147h199h148v-88q0 -14 -9 -24.5t-23 -13.5q-84 -17 -116 -23v-1151h529q9 107 11 117q3 15 15 25t28 10h99v-319h-47h-19h-815h-147z" />
<glyph unicode="M" horiz-adv-x="1953" d="M69 0v88q0 32 30 38l117 24v1168q-98 19 -117 23q-31 6 -30 38v88h293q27 0 41.5 -5t27.5 -28l507 -904q18 -31 46 -106q22 59 47 107l497 903q13 24 27.5 28.5t40.5 4.5h295v-88q0 -32 -31 -38q-116 -24 -117 -23v-1168q99 -19 117 -24q32 -6 31 -38v-88h-489v88 q0 32 29.5 38t137.5 24v928q0 45 4 97l-503 -918q-26 -46 -72 -46h-28q-46 0 -72 46l-514 921q6 -53 6 -100v-928q111 -18 139 -24t28 -38v-88h-488z" />
<glyph unicode="N" horiz-adv-x="1589" d="M70 0v88q0 32 30 38l117 24v1168q-98 19 -117 23q-31 6 -30 38v88h249q27 0 40 -6.5t29 -26.5l850 -1106q-5 44 -5 100v890q-120 20 -136 23q-31 6 -31 38v88h167h174h148v-88q0 -32 -31 -38l-117 -23v-1318h-100q-42 0 -71 36l-849 1105q4 -52 4 -95v-896 q121 -20 136 -24q31 -6 31 -38v-88h-488z" />
<glyph unicode="O" horiz-adv-x="1545" d="M46 733q0 165 52.5 303t147.5 237.5t228 155t295 55.5t295.5 -55.5t229 -155t147.5 -237.5t52 -303t-52 -302.5t-147.5 -237t-229 -154t-295.5 -54.5t-295 54.5t-228 154t-147.5 237t-52.5 302.5zM249 733q0 -135 37 -242t105 -181t164 -113.5t214 -39.5q119 0 215 39.5 t163.5 113.5t104.5 181t37 242t-37 242.5t-104.5 182t-163.5 114.5t-215 40q-118 0 -214 -40t-164 -114.5t-105 -182t-37 -242.5z" />
<glyph unicode="P" horiz-adv-x="1211" d="M70 0v88q0 32 30 38l117 24v1168q-98 19 -117 23q-31 6 -30 38v88h553h8q134 0 234 -31q304 -96 304 -423q0 -209 -140 -334q-146 -130 -406 -130h-208v-399q19 -4 116 -24q31 -6 31 -38v-88h-492zM415 707h208q166 0 257 83t91 223t-86.5 219t-261.5 79h-208v-604z" />
<glyph unicode="Q" horiz-adv-x="1575" d="M46 733q0 165 52.5 303t147.5 237.5t228 155t295 55.5t295.5 -55.5t229 -155t147.5 -237.5t52 -303q0 -103 -21 -196.5t-61 -173.5t-97.5 -145.5t-128.5 -114.5l377 -406h-164q-37 0 -65.5 10t-52.5 36l-258 281q-58 -18 -121 -28.5t-132 -10.5q-162 0 -295 54.5 t-228 154t-147.5 237t-52.5 302.5zM249 733q0 -135 37 -242t105 -181t164 -113.5t214 -39.5q119 0 215 39.5t163.5 113.5t104.5 181t37 242t-37 242.5t-104.5 182t-163.5 114.5t-215 40q-118 0 -214 -40t-164 -114.5t-105 -182t-37 -242.5z" />
<glyph unicode="R" horiz-adv-x="1370" d="M69 0v88q0 14 8.5 25t22.5 13l116 23v1169q-99 20 -116 23q-13 3 -22 13.5t-9 24.5v88h147h395q139 0 240.5 -28t167.5 -81t98 -128.5t32 -168.5q0 -78 -24.5 -145.5t-71 -121.5t-114 -91.5t-152.5 -57.5q37 -22 66 -62l319 -434q105 -21 114 -23q13 -3 22.5 -13.5 t9.5 -24.5v-88h-37h-111h-65q-54 0 -80 42l-381 524q-17 25 -37.5 35.5t-61.5 10.5h-131v-463q25 -5 116 -23q13 -3 22.5 -13.5t9.5 -24.5v-88h-148h-198h-147zM414 757h188q87 0 153 21t110.5 59.5t67 91.5t22.5 118q0 131 -86.5 197.5t-257.5 66.5h-197v-554z" />
<glyph unicode="S" horiz-adv-x="1037" d="M75 62v368h99q35 0 42 -35q3 -13 9.5 -101t6.5 -89q152 -57 248 -57h5q93 0 147 20q55 20 94 55q79 73 79 194q0 117 -110 180q-49 29 -111 49q-195 60 -258.5 88.5t-112.5 72.5q-110 98 -110 273q0 164 118 280q126 124 327.5 124t410.5 -84v-337h-99q-36 0 -42 35 q-2 6 -16 182q-137 39 -242 39q-129 0 -203 -67q-70 -61 -69 -161q0 -108 110 -171q49 -29 114 -51q184 -61 257 -93q222 -100 222 -331q0 -201 -128 -327q-136 -134 -363 -134q-95 0 -201 19.5t-166 38.5z" />
<glyph unicode="T" horiz-adv-x="1288" d="M45 1143v324h1105h71h27v-324h-99q-36 0 -40 21.5t-17 135.5h-346v-1150q1 0 26 -6q79 -15 101 -19.5t22 -36.5v-88h-495v88q0 32 34.5 39t113.5 23v1150h-346q-14 -116 -19 -136.5t-39 -20.5h-99z" />
<glyph unicode="U" horiz-adv-x="1534" d="M37 1379v88h513v-88q0 -32 -32 -38q-15 -3 -136 -23v-741q0 -187 102 -302q105 -118 283 -118l1 1q180 0 286 116q101 114 101 301v743q-120 20 -135 23q-32 6 -32 38v88h167h198h148v-88q0 -32 -32 -38l-116 -23v-743q0 -259 -156 -423q-161 -169 -428 -169 q-266 0 -428 169q-157 165 -157 423v743q-98 19 -116 23q-31 6 -31 38z" />
<glyph unicode="V" horiz-adv-x="1596" d="M39 1379v88h487v-88q0 -32 -40.5 -40t-106.5 -21l374 -933q22 -51 49 -161q23 104 45 161l372 933q-98 19 -117 23q-31 6 -31 38v88h489v-88q0 -32 -31 -38l-103 -23l-537 -1318h-179l-537 1318q-85 19 -103 23q-31 6 -31 38z" />
<glyph unicode="W" horiz-adv-x="2305" d="M38 1379v88h498v-88q0 -32 -31 -38q-104 -22 -117 -23l272 -918q13 -46 28 -126q18 91 31 126l345 1020q6 17 24 32t44 15h57q51 0 67 -47l343 -1020q18 -53 33 -121q6 33 11.5 64t13.5 57l273 918q-12 2 -115 23q-32 6 -32 38v88h399h87v-88q0 -32 -31 -38l-102 -23 l-412 -1318h-178l-371 1119q-11 32 -21 74q-5 -18 -9.5 -38t-9.5 -36l-374 -1119h-178l-411 1318q-85 19 -103 23q-31 6 -31 38z" />
<glyph unicode="X" horiz-adv-x="1545" d="M63 0v88q0 32 31 38q7 2 136 24l406 604l-383 564q-119 19 -136 23q-32 6 -32 38v88h523v-88q0 -32 -32.5 -38.5t-99.5 -19.5l306 -469q6 22 22 47l281 419q-39 8 -116 23q-31 6 -31 38v88h526v-88q0 -32 -25.5 -37t-141.5 -24l-383 -555l404 -613q119 -20 136 -24 q31 -6 31 -38v-88h-540v88q0 32 31 38q11 2 63.5 13t53.5 11l-322 503q-7 -22 -18 -41l-310 -462q8 -2 117 -24q31 -6 31 -38v-88h-528z" />
<glyph unicode="Y" horiz-adv-x="1435" d="M39 1379v88h493v-88q0 -32 -31 -38q-104 -22 -116 -23l274 -467q33 -57 60 -130q28 78 58 130l275 467q-12 2 -117 23q-31 6 -31 38v88h494v-88q0 -32 -26 -37t-108 -24l-448 -734v-434q14 -3 117 -24q31 -6 31 -38v-88h-148h-198h-147v88q0 32 31 38l116 24v434 l-446 734q-76 18 -104.5 24t-28.5 37z" />
<glyph unicode="Z" horiz-adv-x="1244" d="M63 0v78q0 31 20 58l831 1170h-656q-11 -147 -14 -161q-7 -35 -42 -35h-100v196v161h1074v-73q0 -35 -22 -66l-830 -1166h682q11 148 14 161q7 35 42 34h99v-195v-162h-1098z" />
<glyph unicode="[" horiz-adv-x="532" d="M114 -296v1866h376v-72q0 -23 -13.5 -35.5t-36.5 -12.5h-173v-1625h173q23 0 36.5 -13t13.5 -36v-72h-376z" />
<glyph unicode="\" horiz-adv-x="864" d="M43 1508h78q34 0 58.5 -17t37.5 -50l616 -1533h-77q-30 0 -58.5 17.5t-42.5 52.5z" />
<glyph unicode="]" horiz-adv-x="531" d="M43 -224q0 20 14 34.5t36 14.5h173v1625h-173q-23 0 -36.5 14t-13.5 34v72h377v-1866h-377v72z" />
<glyph unicode="^" horiz-adv-x="965" d="M57 806l367 661h118l366 -661h-132q-17 0 -29.5 10t-20.5 25l-201 360q-13 24 -22.5 46t-17.5 43q-14 -45 -38 -89l-198 -360q-8 -14 -20 -24.5t-32 -10.5h-140z" />
<glyph unicode="_" horiz-adv-x="1051" d="M121 -169h807v-123h-807v123z" />
<glyph unicode="`" horiz-adv-x="555" d="M75 1484h173q34 0 50 -11t31 -34l152 -248h-104q-22 0 -35 6.5t-28 22.5z" />
<glyph unicode="a" horiz-adv-x="1051" d="M48 262q0 62 33.5 119t109 101t197.5 72.5t298 28.5v81q0 122 -52 184t-153 62q-67 0 -112.5 -17t-78.5 -37q-34 -21 -57 -38q-24 -17 -48 -17q-18 0 -32 9.5t-22 24.5l-33 58q86 83 185.5 124t219.5 41q87 0 155 -29t114 -80t69.5 -123.5t23.5 -159.5v-518 q100 -20 101 -20q13 -3 22 -13.5t9 -24.5v-88h-132h-15h-66q-27 0 -43 8t-21 35l-21 96q-41 -37 -80 -66t-82 -49t-91 -30q-49 -10 -108 -10q-60 0 -113 17t-92 50.5t-62 85.5t-23 123zM223 270q0 -41 13 -71t35.5 -49t53.5 -27.5t67 -8.5q48 0 88 9.5t75 27.5t67.5 43.5 t63.5 58.5v214q-126 0 -214 -16t-143.5 -42t-80.5 -61t-25 -78z" />
<glyph unicode="b" horiz-adv-x="1157" d="M33 1420v89h162h6h177v-621q65 75 148 120.5t191 45.5q90 0 162.5 -34t124 -101t79 -165.5t27.5 -227.5v-2v-2v-3q0 -127 -35.5 -226t-96.5 -167t-144.5 -104t-181.5 -36q-82 0 -196.5 14t-187.5 29l-73 14v17v149v1151q-115 19 -131 22q-9 2 -16 7.5t-11 13.5t-4 17z M378 161q108 -27 204 -32q21 -1 40 -1h12q62 2 112 25q56 26 95 76t60 123q19 65 21 158v16q0 101 -18 173.5t-52 119.5t-83 68.5t-111 21.5q-89 0 -156.5 -41t-123.5 -116v-242v-260v-89z" />
<glyph unicode="c" horiz-adv-x="927" d="M45 519q0 239 126 384q132 151 363 151q119 0 307 -76v-269h-82q-30 0 -35 28q-3 11 -8 77t-5 69q-49 15 -76 19q-53 8 -104 8h-11q-56 -1 -112.5 -27t-96.5 -77q-79 -103 -79 -287q0 -185 82 -291q80 -101 221 -101q128 0 228 86q18 16 39 16t33 -17l51 -67 q-129 -159 -380 -159h-3q-200 0 -326 140q-132 145 -132 393z" />
<glyph unicode="d" horiz-adv-x="1156" d="M46 515q0 236 120 385q123 156 329 156q172 0 283 -123v426q-104 16 -136 23t-32 38v88h351v-1358q98 -19 116 -24q31 -6 31 -38v-88h-256q-39 0 -49 38l-17 126q-146 -178 -348 -178q-182 0 -285 135q-106 138 -107 394zM234 515q0 -294 152 -360q50 -22 113 -22 q162 0 279 157v502q-90 122 -238 122h-1q-149 0 -227 -103.5t-78 -295.5z" />
<glyph unicode="e" horiz-adv-x="1008" d="M44 540q0 109 33.5 203t96 163t152 108.5t202.5 39.5q93 0 172 -31.5t136.5 -90.5t89.5 -145.5t32 -196.5q0 -43 -9 -57.5t-35 -14.5h-690q2 -98 26.5 -171t67.5 -121.5t102.5 -72.5t133.5 -24q69 0 118.5 16t85.5 34.5t60 34t41 15.5q23 0 35 -17l51 -67 q-34 -41 -81 -71t-100.5 -49.5t-111 -29t-113.5 -9.5q-108 0 -198.5 36t-156.5 106.5t-103 174t-37 237.5zM230 632h565q0 63 -17.5 116t-51.5 91.5t-83 59.5t-111 21q-132 0 -207.5 -76.5t-94.5 -211.5z" />
<glyph unicode="f" horiz-adv-x="761" d="M58 942v75h164v100q0 176 96 276q95 96 261 96q70 0 129 -21l-5 -91q-1 -20 -17 -24t-46 -4h-32q-209 0 -209 -237v-95h300v-132h-293v-735q121 -20 136 -24q31 -6 30 -38v-88h-509v88q0 32 32 38l127 24v732l-114 13q-49 11 -50 47z" />
<glyph unicode="g" horiz-adv-x="1038" d="M26 -99q0 77 48.5 130.5t133.5 85.5q-44 20 -70 54.5t-26 91.5q0 23 8 47t25 47.5t41.5 45t57.5 37.5q-77 43 -120.5 114.5t-43.5 166.5q0 76 29 138t81.5 105.5t124.5 67t158 23.5q68 0 126.5 -15t107.5 -44h281v-67q0 -34 -43 -43l-118 -17q35 -67 35 -148 q0 -76 -29 -138t-81 -106t-123 -67.5t-156 -23.5q-73 0 -137 17q-33 -20 -50 -43.5t-17 -46.5q0 -37 30 -55.5t79 -27t111.5 -10.5t127.5 -6.5t127.5 -16t111.5 -37t79 -70.5t30 -117q0 -67 -33.5 -129t-96 -110.5t-152.5 -78t-203.5 -29.5t-199 22.5t-142 60.5t-84.5 87.5 t-28 104.5zM185 -76q0 -35 18 -65t55 -52t93 -35t131 -13q74 0 132.5 13.5t99 38t62 58.5t21.5 75q0 39 -21.5 62.5t-58.5 36t-85 19t-101.5 9t-108.5 5.5t-106 11q-58 -28 -94.5 -67.5t-36.5 -95.5zM248 716q0 -46 15 -84.5t43.5 -66t70.5 -43t96 -15.5q55 0 97.5 15.5 t71.5 43t43 66t14 84.5q0 95 -57.5 151.5t-168.5 56.5q-110 0 -167.5 -56.5t-57.5 -151.5z" />
<glyph unicode="h" horiz-adv-x="1281" d="M50 1420v88h350v-610q146 156 334 156q168 0 258 -108q89 -105 89 -286v-510q98 -19 117 -24q31 -6 31 -38v-88h-330v660q0 248 -218 248q-152 0 -281 -144v-614l26 -6q80 -15 91 -18q31 -6 31 -38v-88h-477v88q0 32 30 38l117 24v1209q-119 19 -137 23q-31 6 -31 38z " />
<glyph unicode="i" horiz-adv-x="592" d="M65 0v88q0 14 8.5 25t22.5 13l116 23v739q-99 20 -116 23q-13 3 -22 13.5t-9 24.5v88h330v-888q98 -19 116 -23q13 -3 22 -13.5t9 -24.5v-88h-477zM175 1363q0 27 10.5 51t28.5 41.5t41 28t49.5 10.5t50 -10t41.5 -28t28.5 -42t10.5 -51t-10.5 -50t-28.5 -41t-41.5 -28 t-50 -10t-49.5 10t-41 28t-28.5 41t-10.5 50z" />
<glyph unicode="j" horiz-adv-x="529" d="M12 -352l8 98q3 20 32 21h40q80 0 114 37t34 120v964q-33 6 -117 23q-31 6 -31 38v88h148h182v-1114q0 -206 -159 -273q-56 -23 -125.5 -23t-125.5 21zM203 1363q0 27 10 51t28 42t41 28t49.5 10t50.5 -10t41.5 -28t28.5 -42t11 -51t-11 -50t-28.5 -41t-41.5 -28 t-50.5 -10t-49.5 10t-41 28t-28 41t-10 50z" />
<glyph unicode="k" horiz-adv-x="1184" d="M67 0v88q0 32 30 38l117 24v1209q-98 19 -117 23q-31 6 -30 38v88h147h183v-887h47q37 0 64 28l233 251q-10 2 -22 4q-23 4 -34 7q-32 6 -32 38v88h254h166h12v-88q0 -32 -25.5 -37t-126.5 -24l-242 -257q-31 -38 -59 -54q35 -23 61 -65l288 -362l53 -11q53 -11 63 -13 q32 -6 31 -38v-88h-193q-40 0 -69 36l-341 425q-15 22 -30.5 28.5t-45.5 6.5h-52v-346q11 -2 117 -24q31 -6 31 -38v-88h-478z" />
<glyph unicode="l" horiz-adv-x="593" d="M67 0v88q0 32 30 38l117 24v1209q-98 19 -117 23q-31 6 -30 38v88h329v-1358q100 -20 117 -24q32 -6 32 -38v-88h-478z" />
<glyph unicode="m" horiz-adv-x="1823" d="M69 0v88q0 32 30 38l117 24v738q-98 19 -117 23q-31 6 -30 38v88h147h109q39 0 49 -38l13 -106q131 161 294 161q105 0 170 -58.5t94 -157.5q41 108 136 164q85 52 181 52h4q94 0 156 -26q64 -26 109 -77q91 -103 91 -291v-510q99 -19 117 -24q32 -6 31 -38v-88h-330v660 q0 122 -53.5 185t-154.5 63q-94 0 -157 -62q-67 -67 -66 -186v-510q17 -3 116 -24q31 -6 31 -38v-88h-330v660q0 248 -196 248q-127 0 -232 -135v-623l55 -11q54 -11 62 -13q32 -6 32 -38v-88h-478z" />
<glyph unicode="n" horiz-adv-x="1281" d="M69 0v88q0 32 30 38l117 24v738q-98 19 -117 23q-31 6 -30 38v88h147h109q39 0 49 -38l14 -112q152 167 344 167q168 0 259 -109q88 -104 88 -285v-510q99 -19 117 -24q32 -6 32 -38v-88h-331v660q0 248 -218 248q-152 0 -281 -144v-614q7 -1 117 -24q32 -6 32 -38v-88 h-478z" />
<glyph unicode="o" horiz-adv-x="1081" d="M45 519q0 122 35 221t99.5 168.5t156 107.5t205 38t205.5 -38t156 -107.5t98 -168.5t34 -221q0 -123 -34 -221t-98 -168t-156 -107t-205.5 -37t-205 37t-156 107t-99.5 168t-35 221zM233 518q0 -92 19 -164.5t57.5 -122.5t96 -76.5t135.5 -26.5q154 0 229.5 103t75.5 287 q0 185 -76 288.5t-229 103.5q-78 0 -135.5 -26.5t-96 -76.5t-57.5 -123.5t-19 -165.5z" />
<glyph unicode="p" horiz-adv-x="1139" d="M30 -263q0 32 30 38l117 23v1090q-98 19 -117 23q-31 6 -30 38v88h147h109q39 0 49 -38l15 -122q147 179 349 179q182 0 286 -135q107 -140 107 -396q0 -234 -119 -384q-123 -156 -312 -156q-1 0 -1 1q-191 0 -301 122v-310q3 -1 56 -11t61 -12q31 -6 31 -38v-88h-477v88 zM359 250q91 -123 240 -123t226.5 103.5t77.5 294.5q0 383 -264 383q-161 0 -280 -156v-502z" />
<glyph unicode="q" horiz-adv-x="1136" d="M48 516v3q0 251 132 397q126 139 326 140q164 0 384 -43l74 -15v-1199q115 -18 131 -22q31 -6 30 -37v-89h-513v89q0 31 26.5 36.5t141.5 23.5v354q-143 -166 -339 -166q-184 0 -286 135q-106 139 -107 393zM237 516q0 -383 264 -383q162 0 279 157v591q-131 33 -237 33 h-6h-13q-204 -8 -267 -225q-20 -69 -20 -119v-54z" />
<glyph unicode="r" horiz-adv-x="884" d="M69 0v88q0 32 30 38l117 24v738q-98 19 -117 23q-31 6 -30 38v88h147h105q30 0 41 -11t15 -39l12 -162q114 230 316 231q80 0 142 -37l-24 -136q-7 -26 -26.5 -26t-49 10t-82.5 10q-178 0 -267 -217v-510q26 -5 117 -24q31 -6 31 -38v-88h-477z" />
<glyph unicode="s" horiz-adv-x="840" d="M87 753q0 126 96 210q103 91 292 91q108 0 270 -55v-72v-194h-80q-30 0 -35 29q-1 4 -13 134q-93 22 -159 22h-2q-87 -1 -142 -45q-54 -42 -54 -94t24 -79q41 -48 117.5 -71.5t127.5 -40.5t99 -37.5t86 -50.5q84 -69 84 -183q0 -148 -102 -237q-105 -94 -273 -95h-6 q-165 0 -329 56v271h73q26 0 30 -25q2 -9 13 -131q88 -41 211 -41q101 0 159 51q13 12 23 24.5t16.5 25.5t10 27.5t3.5 29.5q0 57 -23 84q-23 28 -61 48t-87 34q-135 42 -191 66t-94 56q-84 71 -84 192z" />
<glyph unicode="t" horiz-adv-x="743" d="M26 925v72l170 22l42 320q2 15 13 25t29 10h92v-357h297v-132h-297v-623q0 -66 31.5 -97.5t81.5 -31.5q29 0 50 7.5t36.5 17t26 17t18.5 7.5q14 0 26 -17l53 -87q-47 -44 -113.5 -69t-137.5 -25q-123 0 -189 68.5t-66 197.5v635h-124q-16 0 -27.5 9.5t-11.5 30.5z" />
<glyph unicode="u" horiz-adv-x="1242" d="M29 949v88h329v-661q0 -118 54.5 -182.5t164.5 -64.5q155 0 280 143v616q-17 4 -116 23q-32 6 -31 38v88h147h182v-887q99 -19 117 -24q32 -6 32 -38v-88h-257q-39 0 -49 38l-15 112q-150 -166 -344 -166q-166 0 -259 107q-88 102 -88 285v512q-98 19 -117 23 q-31 6 -30 38z" />
<glyph unicode="v" horiz-adv-x="1221" d="M30 949v88h465v-88q0 -32 -31 -38q-18 -4 -114 -22l220 -557q17 -46 38 -147q23 99 41 147l221 556q-24 5 -116 23q-31 6 -31 38v88h389h71v-88q0 -32 -31 -38q-11 -2 -100 -20l-363 -891h-165l-363 891q-17 4 -56.5 11.5t-44.5 8.5q-31 6 -30 38z" />
<glyph unicode="w" horiz-adv-x="1779" d="M29 949v88h463v-88q0 -32 -32 -38q-19 -4 -113 -22l166 -557q20 -93 28 -141q9 41 40 141l219 672q11 35 48 35h2h79q40 0 52 -35l214 -672q13 -44 36 -139q11 71 32 139l168 556q-14 2 -121 23q-32 6 -32 38v88h463v-88q0 -32 -31 -38q-11 -2 -52 -10t-50 -10l-288 -891 h-144q-28 0 -37 35l-230 703q-9 24 -14 50t-9 46q-6 -27 -11 -50t-13 -47l-232 -702q-11 -35 -42 -35h-137l-289 891q-8 1 -34 6q-59 12 -69 14q-31 6 -30 38z" />
<glyph unicode="x" horiz-adv-x="1169" d="M67 0v88q0 32 30 38q14 3 49.5 10t50.5 9l263 386l-247 359q-87 17 -107 21q-31 6 -30 38v88h406v-88q0 -32 -31 -38q-3 -1 -43 -9l183 -281q9 29 26 57l152 222q-13 3 -32.5 6.5t-21.5 4.5q-31 6 -31 38v88h407v-88q0 -32 -32.5 -38.5t-107.5 -20.5l-245 -348l266 -397 q54 -11 91 -18t37 -39v-88h-408v88q0 32 32 38q8 2 51 10l-198 308q-7 -30 -22 -53l-173 -253l25 -5q32 -6 35 -7q32 -6 32 -38v-88h-407z" />
<glyph unicode="y" horiz-adv-x="1220" d="M29 949v88h465v-88q0 -32 -31 -38q-16 -4 -113 -22l231 -543q16 -41 27 -91q18 60 31 92l224 542q-83 16 -112 22.5t-29 37.5v88h385h75v-88q0 -32 -31 -38q-9 -2 -54 -11t-54 -10l-515 -1196q-20 -45 -65 -45h-135l189 411l-364 833q-75 14 -94 18q-31 6 -30 38z" />
<glyph unicode="z" horiz-adv-x="945" d="M69 0v76q0 32 25 65l564 753h-443q-9 -114 -11 -125q-5 -26 -31 -26h-73v294h104h666v-78q0 -37 -25 -69l-561 -748h461q9 125 12 137q5 26 31 25h73v-304h-792z" />
<glyph unicode="{" horiz-adv-x="567" d="M46 583v109q69 0 104.5 41t35.5 107q0 51 -8 101t-17.5 100.5t-18 101.5t-8.5 104q0 71 21 130.5t63.5 102.5t105.5 66.5t147 23.5h54v-81q0 -20 -14 -29.5t-27 -9.5h-20q-79 0 -124.5 -51.5t-45.5 -140.5q0 -57 7 -110t16.5 -104t16.5 -101t7 -101q0 -39 -11.5 -72.5 t-32.5 -59.5t-49 -45t-62 -28q34 -9 62 -28t49 -45.5t32.5 -59.5t11.5 -71q0 -51 -7 -101t-16.5 -101t-16.5 -104t-7 -111q0 -89 45.5 -140t124.5 -51h20q12 0 26.5 -9.5t14.5 -29.5v-82h-54q-84 0 -147 24t-105.5 67t-63.5 102.5t-21 130.5q0 53 8.5 103.5t18 101.5 t17.5 101t8 101q0 65 -35.5 106.5t-104.5 41.5z" />
<glyph unicode="|" horiz-adv-x="367" d="M114 -351v1921h141v-1921h-141z" />
<glyph unicode="}" horiz-adv-x="568" d="M44 -214q0 20 14.5 29.5t26.5 9.5h20q79 0 124.5 51t45.5 140q0 57 -7 110.5t-16 104.5t-16.5 101t-7.5 101q0 38 11.5 71t32.5 59.5t49 45.5t62 28q-34 9 -62 28t-49 45t-32.5 59.5t-11.5 72.5q0 51 7.5 101t16.5 101t16 104t7 110q0 88 -45.5 140t-124.5 52h-20 q-12 0 -26.5 9t-14.5 30v81h54q84 0 147 -23.5t105 -66.5t63.5 -102.5t21.5 -130.5q0 -53 -8 -104t-18 -101.5t-18 -100.5t-8 -101q0 -66 36 -107t104 -41v-109q-69 0 -104.5 -41.5t-35.5 -106.5q0 -51 8 -101t18 -101t18 -101.5t8 -103.5q0 -71 -21.5 -130.5t-63.5 -102.5 t-105 -67t-147 -24h-54v82z" />
<glyph unicode="~" horiz-adv-x="1124" d="M88 424q0 69 19 126t54.5 98t87 64t118.5 23q53 0 105 -17t101 -36.5t92.5 -36.5t80.5 -17q67 0 104.5 43.5t38.5 114.5h147q0 -69 -19 -126t-54 -98t-87.5 -63.5t-117.5 -22.5q-53 0 -105.5 16.5t-101 36.5t-92.5 37t-81 17q-67 0 -104 -43t-38 -116h-148z" />
<glyph unicode="&#xa1;" horiz-adv-x="409" d="M77 926q0 28 9.5 50.5t27 40t40.5 27.5t51 10q27 0 50 -10t40 -27.5t27.5 -40.5t10.5 -50t-10.5 -50.5t-27.5 -41t-40.5 -27.5t-49.5 -10q-28 0 -51 10t-40.5 27.5t-27 41t-9.5 50.5zM122 203q0 46 1.5 89.5t4.5 88t7.5 91.5t10.5 100h124q6 -53 11 -100t8 -91.5t4.5 -88 t1.5 -89.5v-554h-173v554z" />
<glyph unicode="&#xa2;" horiz-adv-x="942" d="M59 518q0 239 127 383q113 131 301 149l13 183q2 22 15.5 37t35.5 15h67l-16 -236q111 -14 253 -73v-268h-82q-30 0 -35 28q-3 11 -13 146q-47 14 -75 18q-38 6 -58 8v-1l-53 -778v-3h42q34 0 77 16t72 35.5t47.5 35t39.5 15.5t32 -17l51 -67q-126 -155 -372 -159 l-11 -176q-2 -18 -16 -33.5t-35 -15.5h-68l16 236q-132 29 -223 129q-132 145 -132 393zM247 518q0 -185 82 -291q39 -49 94 -75q4 24 54 749q-161 -38 -211 -220q-19 -73 -19 -163z" />
<glyph unicode="&#xa3;" horiz-adv-x="1189" d="M54 629v59q0 27 16.5 45.5t46.5 18.5h137v267q0 96 27.5 180.5t84 147.5t140.5 99.5t196 36.5q80 0 142 -20t110 -55t83.5 -81t60.5 -99l-74 -47q-10 -6 -21 -9t-21 -3q-14 0 -27 6t-24 20q-20 26 -41.5 50t-47.5 42t-59.5 28.5t-80.5 10.5q-65 0 -113.5 -21.5 t-81.5 -61.5t-49.5 -96t-16.5 -126v-269h452v-74q0 -18 -15.5 -33.5t-37.5 -15.5h-399v-249q0 -77 -29 -133t-80 -102q30 5 59 9t60 4h692v-78q0 -14 -5.5 -28t-16 -26t-25 -19t-32.5 -7h-987v118q35 10 66.5 27.5t56 43.5t39.5 61.5t15 82.5v296h-200z" />
<glyph unicode="&#xa4;" horiz-adv-x="1041" d="M62 1052l94 92l154 -156q45 32 98.5 49.5t112.5 17.5q58 0 110.5 -17t96.5 -48l157 157l91 -93l-155 -156q32 -45 49.5 -97.5t17.5 -112.5q0 -58 -17 -110.5t-47 -96.5l156 -154l-93 -95l-156 156q-45 -31 -98 -48t-111.5 -17t-110.5 16.5t-97 46.5l-156 -157l-91 94 l154 155q-31 45 -48 98t-17 112q0 58 16.5 110t46.5 97zM291 688q0 -47 18 -88.5t49.5 -72.5t73 -49.5t89.5 -18.5t90.5 18.5t74 49.5t50 72.5t18.5 88.5q0 48 -18.5 90t-50 74t-74 50t-90.5 18t-89.5 -18t-73 -50t-49.5 -74t-18 -90z" />
<glyph unicode="&#xa5;" horiz-adv-x="1172" d="M45 1467h153q27 0 42.5 -12.5t25.5 -33.5l283 -579q14 -36 24.5 -66t17.5 -59q7 30 16 60t24 65l281 579q8 17 25 31.5t43 14.5h154l-419 -827h314v-104h-348v-108h348v-105h-348v-323h-183v323h-348v105h348v108h-348v104h313z" />
<glyph unicode="&#xa6;" horiz-adv-x="358" d="M110 -351v814h141v-814h-141zM110 757v813h141v-813h-141z" />
<glyph unicode="&#xa7;" horiz-adv-x="923" d="M58 715q0 80 44 144t140 99q-51 39 -83.5 93t-32.5 131q0 59 24.5 114t71.5 96t116 65.5t157 24.5q102 0 183.5 -32t140.5 -88l-41 -67q-12 -23 -38 -22q-15 0 -34.5 11t-47.5 25t-67 26t-92 12q-49 0 -88.5 -13t-67 -34.5t-41.5 -50t-14 -60.5q0 -39 25 -68t65.5 -53.5 t92.5 -46.5t106 -45.5t106 -51.5t92.5 -64.5t65.5 -83.5t25 -109q0 -83 -40 -148t-126 -104q50 -38 82 -88.5t32 -120.5q0 -72 -25.5 -133t-75 -105.5t-123 -70t-167.5 -25.5q-109 0 -197 35.5t-149 90.5l42 70q8 13 20 20t29 7q18 0 38.5 -14t50.5 -32t73.5 -32.5 t107.5 -14.5q51 0 91.5 13t68.5 36t42 54.5t14 70.5q0 46 -25.5 80t-67.5 60t-95 47.5t-109.5 44t-109.5 48.5t-95 62t-68 83.5t-26 113.5zM220 743q0 -52 36 -88.5t91.5 -65.5t123.5 -56t131 -59q55 27 80 65.5t25 86.5q0 37 -15.5 65.5t-42 52t-62.5 43t-76.5 37.5 t-83.5 36t-84 38q-68 -31 -95.5 -68.5t-27.5 -86.5z" />
<glyph unicode="&#xa8;" horiz-adv-x="766" d="M86 1319.5q0 23.5 9 45.5t25 37.5t36.5 25t43.5 9.5q24 0 44.5 -9.5t37 -25.5t25.5 -37.5t9 -45t-9 -44t-25.5 -35.5t-37.5 -24.5t-44 -9.5t-43.5 9.5t-36.5 24.5t-25 35.5t-9 44zM454 1319.5q0 23.5 9 45.5t24.5 37.5t36.5 25t44.5 9.5t44.5 -9.5t37 -25.5t25 -37.5 t9 -45t-9 -44t-25 -35.5t-37 -24.5t-44.5 -9.5t-44.5 9.5t-36.5 24.5t-24.5 35.5t-9 44z" />
<glyph unicode="&#xa9;" horiz-adv-x="1624" d="M65 733.5q0 103.5 26.5 199t75 179t117 151.5t151.5 117.5t178.5 76t198.5 26.5t199 -26.5t179 -76t151.5 -117.5t117 -151.5t75.5 -179t27 -199.5q0 -102 -27 -198t-75.5 -179t-117 -151t-151.5 -117t-179 -75.5t-199 -26.5t-198.5 26.5t-178.5 75.5t-151.5 117 t-117 151t-75 178.5t-26.5 199zM167 733q0 -91 22.5 -175t64.5 -157t100.5 -132.5t130 -102t154.5 -65.5t173 -23q135 0 253.5 51t206 139.5t138 208t50.5 256.5q0 91 -23 176t-65 158.5t-101 134t-130.5 103t-155 66t-173.5 23.5q-135 0 -253 -52t-205 -141.5t-137 -210 t-50 -257.5zM369 735q0 103 35 190t97.5 149t148 96t186.5 34q111 0 188.5 -34.5t135.5 -91.5l-47 -66q-5 -6 -13 -12.5t-21 -6.5q-14 0 -30 11.5t-41.5 25t-64.5 25.5t-99 12q-72 0 -130 -23t-98.5 -66t-62.5 -104.5t-22 -138.5q0 -79 22 -141t61 -103.5t93.5 -64 t117.5 -22.5q49 0 83 6.5t58.5 16.5t44 22.5t39.5 24.5q8 5 13.5 8.5t11.5 3.5q11 0 15.5 -3t10.5 -9l62 -65q-58 -68 -143 -105.5t-204 -37.5q-100 0 -182.5 35t-141.5 97.5t-91 148.5t-32 188z" />
<glyph unicode="&#xaa;" horiz-adv-x="681" d="M74 1017q0 35 19.5 69t64.5 61.5t119 45t184 19.5v38q0 65 -30 95.5t-88 30.5q-39 0 -64.5 -9t-44.5 -20t-34 -19.5t-31 -8.5q-14 0 -24.5 7.5t-15.5 18.5l-23 43q53 50 115.5 73.5t136.5 23.5q55 0 98.5 -17.5t73 -48t45 -73.5t15.5 -96v-390h-62q-18 0 -27 5.5 t-18 24.5l-12 50q-25 -22 -48.5 -38t-49 -28t-54 -17.5t-63.5 -5.5q-39 0 -72 10t-58 31t-38.5 52t-13.5 73zM202 1023q0 -43 26.5 -60.5t67.5 -17.5q52 0 90 19.5t75 55.5v107q-72 -2 -121.5 -10.5t-80.5 -22.5t-44 -32t-13 -39z" />
<glyph unicode="&#xab;" horiz-adv-x="786" d="M67 530v24l255 398l59 -28q14 -7 21.5 -18.5t7.5 -24.5q0 -17 -11 -34l-162 -267q-14 -25 -29 -38q15 -14 29 -37l162 -267q5 -8 8 -17.5t3 -17.5q0 -29 -29 -42l-59 -29zM370 530v24l255 398l59 -28q14 -7 21.5 -18.5t7.5 -24.5q0 -17 -11 -34l-162 -267 q-14 -25 -29 -38q15 -14 29 -37l162 -267q5 -8 8 -17.5t3 -17.5q0 -29 -29 -42l-59 -29z" />
<glyph unicode="&#xac;" horiz-adv-x="1070" d="M89 618v139h881v-434h-155v295h-726z" />
<glyph unicode="&#xad;" horiz-adv-x="699" d="M97 537v154h506v-154h-506z" />
<glyph unicode="&#xae;" horiz-adv-x="1624" d="M65 733.5q0 103.5 26.5 199t75 179t117 151.5t151.5 117.5t178.5 76t198.5 26.5t199 -26.5t179 -76t151.5 -117.5t117 -151.5t75.5 -179t27 -199.5q0 -102 -27 -198t-75.5 -179t-117 -151t-151.5 -117t-179 -75.5t-199 -26.5t-198.5 26.5t-178.5 75.5t-151.5 117 t-117 151t-75 178.5t-26.5 199zM167 733q0 -91 22.5 -175t64.5 -157t100.5 -132.5t130 -102t154.5 -65.5t173 -23q135 0 253.5 51t206 139.5t138 208t50.5 256.5q0 91 -23 176t-65 158.5t-101 134t-130.5 103t-155 66t-173.5 23.5q-135 0 -253 -52t-205 -141.5t-137 -210 t-50 -257.5zM505 279v913h295q176 0 261 -64t85 -189q0 -96 -55 -163.5t-163 -93.5q17 -10 30 -25.5t24 -35.5l233 -342h-151q-34 0 -50 25l-206 309q-9 13 -22 20.5t-40 7.5h-81v-362h-160zM665 758h118q56 0 96 10.5t64 31t34.5 50.5t10.5 69q0 38 -9.5 66.5t-31.5 47 t-58 27.5t-89 9h-135v-311z" />
<glyph unicode="&#xaf;" horiz-adv-x="773" d="M94 1261v119h588v-119h-588z" />
<glyph unicode="&#xb0;" horiz-adv-x="808" d="M70 1155q0 69 25.5 129.5t70.5 105t106 70t131.5 25.5t131.5 -25.5t106 -70t70.5 -105t25.5 -129.5q0 -68 -25.5 -127.5t-70.5 -104t-106 -71t-131.5 -26.5t-131.5 26.5t-106 71t-70.5 104t-25.5 127.5zM200 1154q0 -43 15 -80.5t43 -65t65 -43.5t80 -16t80 16t64.5 43.5 t43 65t15.5 80.5t-15.5 81t-43 66t-64.5 44t-80 16t-80 -16t-65 -44t-43 -66t-15 -81z" />
<glyph unicode="&#xb1;" horiz-adv-x="1117" d="M71 82v138h981v-138h-981zM71 707v139h414v385h150v-385h417v-139h-417v-377h-150v377h-414z" />
<glyph unicode="&#xb2;" horiz-adv-x="668" d="M70 922v44q0 32 22 54l226 224q123 123 123 215q0 52 -30.5 80.5t-76.5 28.5q-89 0 -120 -92q-17 -31 -45 -31q-8 0 -18 2l-73 12q15 109 85.5 163t176.5 54t170.5 -58t64.5 -155q0 -101 -96 -205q-28 -30 -58 -60l-166 -169q55 14 93 14h159q4 51 5 57q4 20 25 20h56 v-198h-523z" />
<glyph unicode="&#xb3;" horiz-adv-x="645" d="M55 1111l57 25q15 6 29 6q30 0 41 -24q6 -13 15.5 -29.5t25 -31t37.5 -24t54 -9.5t56 10t40.5 26t24.5 36.5t8 42.5q0 31 -8.5 52.5t-28.5 36t-53.5 21.5t-81.5 7v90q89 1 125.5 31.5t36.5 83.5q0 51 -29.5 78t-79 27t-78.5 -24t-41 -65q-8 -16 -17 -24t-24 -8 q-4 0 -8.5 0.5t-10.5 1.5l-68 12q7 54 29.5 94.5t56 68t76.5 41t93 13.5q52 0 94 -14.5t72 -41t46.5 -61t16.5 -75.5q0 -131 -122 -177q68 -19 103.5 -59.5t35.5 -103.5q0 -56 -21.5 -99.5t-57 -72.5t-82 -44t-95.5 -15q-58 0 -101.5 13t-74.5 38t-53 62t-38 85z" />
<glyph unicode="&#xb4;" horiz-adv-x="552" d="M73 1191l151 248q14 24 31 34.5t50 10.5h178l-238 -264q-14 -15 -28 -22t-36 -7h-108z" />
<glyph unicode="&#xb5;" horiz-adv-x="1074" d="M110 -273v1310h182v-673q0 -112 55 -173.5t163 -61.5q80 0 150.5 38t130.5 105v765h182v-1037h-109q-39 0 -49 38l-14 112q-69 -74 -141 -109t-161 -35q-76 0 -133.5 26t-97.5 73q7 -43 10.5 -87.5t3.5 -83.5v-285h-92q-39 0 -59.5 20.5t-20.5 57.5z" />
<glyph unicode="&#xb6;" horiz-adv-x="1391" d="M53 1074q0 88 32.5 160.5t92.5 124t145 80t191 28.5h829v-156h-224v-1517h-161v1517h-283v-1517h-161v882q-106 0 -191 31t-145 85t-92.5 126.5t-32.5 155.5z" />
<glyph unicode="&#xb7;" horiz-adv-x="489" d="M92 607q0 32 12 60.5t33 49t48.5 33t58.5 12.5q32 0 60.5 -12.5t49 -33t32.5 -49t12 -60.5q0 -31 -12 -58.5t-32.5 -48.5t-49.5 -32.5t-60 -11.5t-58.5 11.5t-48.5 32.5t-33 48.5t-12 58.5z" />
<glyph unicode="&#xb8;" horiz-adv-x="540" d="M83 -328l17 57q7 18 24 18q6 0 14 -3.5t19.5 -8t28 -8t37.5 -3.5q43 0 65 16.5t22 43.5q0 19 -11 32.5t-32 22.5t-52 15.5t-70 11.5l44 144h115l-24 -82q92 -20 133.5 -55.5t41.5 -90.5q0 -33 -16.5 -59t-45.5 -44.5t-70 -28t-91 -9.5q-42 0 -79.5 8.5t-69.5 22.5z" />
<glyph unicode="&#xb9;" horiz-adv-x="579" d="M55 1476l228 194h110v-661h133v-87h-416v87h150v450l4 44l-109 -90q-12 -9 -27 -9q-24 0 -33 14z" />
<glyph unicode="&#xba;" horiz-adv-x="777" d="M72 1167q0 73 22.5 132t64 100t99.5 63t131 22q72 0 130 -22t98.5 -63t63 -100t22.5 -132q0 -74 -22.5 -133t-63 -100.5t-98.5 -63.5t-130 -22q-73 0 -131 22t-99.5 63.5t-64 101t-22.5 132.5zM215 1166.5q0 -102.5 42.5 -156.5t131.5 -54q86 0 128.5 54t42.5 156.5 t-42.5 155.5t-128.5 53q-89 0 -131.5 -53t-42.5 -155.5z" />
<glyph unicode="&#xbb;" horiz-adv-x="790" d="M79 203q0 17 10 35l163 267q13 25 28 37q-12 11 -28 38l-163 267q-10 17 -10 35q0 29 29 42l59 28l255 -398v-24l-255 -398l-59 29q-29 13 -29 42zM382 203q0 17 10 35l163 267q13 25 28 37q-12 11 -28 38l-163 267q-10 17 -10 35q0 29 29 42l59 28l255 -398v-24 l-255 -398l-59 29q-29 13 -29 42z" />
<glyph unicode="&#xbc;" horiz-adv-x="1414" d="M41 1274l227 194h111v-661h133v-87h-417v87h151v450l4 45l-110 -91q-12 -9 -26 -9q-24 0 -33 15zM209 0l838 1405q18 30 41.5 46t56.5 16h79l-843 -1413q-19 -32 -42 -43t-52 -11h-78zM785 267l351 479h127v-473h111v-66q0 -11 -7 -19t-20 -8h-84v-180h-112v180h-313 q-18 0 -29 8.5t-13 20.5zM909 273h242v247q0 19 1 42t4 46z" />
<glyph unicode="&#xbd;" horiz-adv-x="1403" d="M41 1274l227 194h111v-661h133v-87h-417v87h151v450l4 45l-110 -91q-12 -9 -31 -9t-28 15zM164 0l837 1405q39 62 99 62h79l-843 -1413q-33 -54 -94 -54h-78zM819 0v44q0 32 23 54l226 225q123 123 123 215q0 52 -31 80t-78 28q-88 0 -118 -92q-17 -31 -45 -31 q-8 0 -19 2l-73 13q15 109 86 163t177 54t170.5 -58.5t64.5 -154.5q0 -101 -96 -205q-28 -30 -59 -61l-165 -168q55 14 93 14h158q4 51 6 56q4 20 24 21h56v-199h-523z" />
<glyph unicode="&#xbe;" horiz-adv-x="1458" d="M49 909l56 25q15 6 30 6q30 0 41 -24q6 -13 15.5 -29.5t24.5 -30.5t37 -24t55 -10q32 0 56 10.5t40.5 26t24.5 36t8 42.5q0 31 -8.5 53t-28.5 36t-53.5 21.5t-81.5 7.5v89q89 1 125.5 31.5t36.5 84.5q0 51 -29.5 77.5t-79 26.5t-78.5 -24t-41 -65q-8 -16 -17 -24t-24 -8 q-4 0 -9 0.5t-10 1.5l-68 12q7 54 29.5 95t55.5 68t76.5 41t93.5 14q52 0 94 -15t72 -41t46.5 -61t16.5 -76q0 -131 -122 -177q68 -19 103 -59t35 -104q0 -56 -21.5 -99t-56.5 -72.5t-81.5 -44t-96.5 -14.5q-58 0 -101 12.5t-74 37.5t-53 62t-38 85zM257 0l838 1405 q18 30 41.5 46t56.5 16h79l-843 -1413q-19 -32 -41.5 -43t-52.5 -11h-78zM829 267l351 479h127v-473h111v-66q0 -11 -7 -19t-20 -8h-84v-180h-112v180h-313q-18 0 -29 8.5t-13 20.5zM953 273h242v247q0 19 1 42t4 46z" />
<glyph unicode="&#xbf;" horiz-adv-x="847" d="M58 -38q0 78 23 132t58.5 93t77.5 67t78.5 52.5t62.5 49.5t30 59l19 157h124l13 -171v-12q0 -45 -23 -76.5t-58.5 -57.5t-76 -50t-76 -54.5t-58.5 -71.5t-23 -102q0 -45 17.5 -80t47.5 -60t70 -38.5t87 -13.5q62 0 106.5 15.5t75.5 34t50 33.5t32 15q14 0 23 -6t16 -17 l48 -77q-32 -30 -70.5 -56.5t-83.5 -47t-98 -32.5t-115 -12q-81 0 -150 23t-119 64.5t-79 102t-29 137.5zM345 925q0 27 10 50t26.5 40.5t40 28t50.5 10.5t50.5 -10.5t41 -28t27 -41t9.5 -49.5q0 -28 -9.5 -51t-27 -40.5t-41 -27t-50.5 -9.5t-50.5 9.5t-40 27t-26.5 40.5 t-10 51z" />
<glyph unicode="&#xc0;" d="M51 0v81q0 28 27 34l82 24l531 1328h202l530 -1328l82 -24q27 -6 27 -34v-81h-421v81q0 28 28 35l84 23l-115 296h-633l-115 -296l84 -23q28 -7 28 -35v-81h-421zM421 1825h206q33 0 49 -7t37 -27l216 -208h-143q-22 0 -34 3.5t-29 16.5zM530 579h523l-217 563 q-23 55 -44 138q-25 -90 -43 -139z" />
<glyph unicode="&#xc1;" d="M51 0v81q0 28 27 34l82 24l531 1328h202l530 -1328l82 -24q27 -6 27 -34v-81h-421v81q0 28 28 35l84 23l-115 296h-633l-115 -296l84 -23q28 -7 28 -35v-81h-421zM530 579h523l-217 563q-23 55 -44 138q-25 -90 -43 -139zM632 1583l216 208q10 10 19 16.5t18 10.5t20 5.5 t29 1.5h206l-301 -221q-17 -12 -30.5 -16.5t-35.5 -4.5h-141z" />
<glyph unicode="&#xc2;" d="M51 0v81q0 28 27 34l82 24l531 1328h202l530 -1328l82 -24q27 -6 27 -34v-81h-421v81q0 28 28 35l84 23l-115 296h-633l-115 -296l84 -23q28 -7 28 -35v-81h-421zM457 1583l243 215h181l243 -215h-138q-12 0 -26.5 3.5t-23.5 9.5l-133 98q-8 4 -12 8q-8 -6 -13 -8 l-133 -98q-9 -6 -23.5 -9.5t-26.5 -3.5h-138zM530 579h523l-217 563q-23 55 -44 138q-25 -90 -43 -139z" />
<glyph unicode="&#xc3;" d="M51 0v81q0 28 27 34l82 24l531 1328h202l530 -1328l82 -24q27 -6 27 -34v-81h-421v81q0 28 28 35l84 23l-115 296h-633l-115 -296l84 -23q28 -7 28 -35v-81h-421zM504 1585q0 44 11.5 81.5t33.5 64t54.5 42t72.5 15.5q36 0 68.5 -13.5t62.5 -29t56 -29t51 -13.5 q36 0 55 21t20 59h101q0 -44 -11.5 -81t-33 -64t-53 -42t-72.5 -15q-36 0 -69 13.5t-63 29t-56.5 29t-51.5 13.5q-35 0 -54 -22t-20 -59h-102zM530 579h523l-217 563q-23 55 -44 138q-25 -90 -43 -139z" />
<glyph unicode="&#xc4;" d="M51 0v81q0 28 27 34l82 24l531 1328h202l530 -1328l82 -24q27 -6 27 -34v-81h-421v81q0 28 28 35l84 23l-115 296h-633l-115 -296l84 -23q28 -7 28 -35v-81h-421zM461 1706q0 24 9 45t24.5 36t35.5 24.5t41 9.5q24 0 45 -9.5t36.5 -24.5t24.5 -36t9 -45q0 -23 -9 -42.5 t-24.5 -35t-36.5 -24.5t-45 -9q-22 0 -41.5 9t-35 24.5t-24.5 35t-9 42.5zM530 579h523l-217 563q-23 55 -44 138q-25 -90 -43 -139zM897 1706q0 24 8.5 45t24 36t36 24.5t44.5 9.5q23 0 43 -9.5t35.5 -24.5t24.5 -36t9 -45q0 -23 -9 -42.5t-24.5 -35t-36 -24.5t-42.5 -9 q-24 0 -44.5 9t-36 24.5t-24 35t-8.5 42.5z" />
<glyph unicode="&#xc5;" d="M51 0v81q0 28 27 34l82 24l531 1328h202l530 -1328l82 -24q27 -6 27 -34v-81h-421v81q0 28 28 35l84 23l-115 296h-633l-115 -296l84 -23q28 -7 28 -35v-81h-421zM530 579h523l-217 563q-23 55 -44 138q-25 -90 -43 -139zM595 1699q0 40 16 73.5t42 57.5t61 37.5t73 13.5 q40 0 75.5 -13.5t62.5 -37.5t42.5 -57.5t15.5 -73.5q0 -39 -15.5 -72t-42.5 -56.5t-62.5 -36.5t-75.5 -13q-39 0 -73.5 13t-60.5 36.5t-42 56.5t-16 72zM686 1699q0 -44 27.5 -73.5t76.5 -29.5q46 0 74 29.5t28 73.5q0 46 -28 74.5t-74 28.5q-48 0 -76 -28.5t-28 -74.5z" />
<glyph unicode="&#xc6;" horiz-adv-x="1988" d="M52 0v81q0 28 27 34v1l82 23l630 1193q-11 2 -27 5t-19 4q-31 6 -30 38v88h1193v-353h-100q-35 0 -42 35q-2 9 -14 157h-611l61 -488h542v-155h-522l62 -501h469q11 136 13 145q7 35 42 35h100v-342h-938v88q0 32 30 38q8 2 47.5 9.5t51.5 9.5l-32 256h-569l-136 -262 l83 -23q29 -7 29 -35v-81h-232h-1h-80h-109zM572 545h477l-97 771q-16 -55 -56 -145z" />
<glyph unicode="&#xc7;" horiz-adv-x="1300" d="M46 733q0 333 205 542t543 209q174 0 453 -106v-114v-228h-99q-35 0 -42 35q-3 12 -9.5 93t-6.5 92q-459 145 -692 -100q-150 -159 -149 -423q0 -266 147 -426q139 -153 362 -152q128 0 193 24q100 37 182 109q17 15 33.5 15t29.5 -13l78 -85q-180 -210 -491 -220 l-15 -57q92 -20 133.5 -55.5t41.5 -79.5t-16.5 -70t-45.5 -45q-59 -38 -160 -37q-79 0 -150 31l18 57q6 18 23 18q6 0 14.5 -3.5t19.5 -7.5q29 -12 69 -12t62 16.5t22 39.5t-11.5 36.5t-32.5 22.5q-34 15 -121 27l37 121q-265 24 -433 204q-191 208 -192 542z" />
<glyph unicode="&#xc8;" horiz-adv-x="1201" d="M69 0v88q0 32 30 38l117 24v1168q-98 19 -117 23q-31 6 -30 38v88h1051v-354h-98q-36 0 -43 36q-2 9 -14 157h-549v-488h540v-155h-540v-501h550q11 136 13 145q7 35 43 35h98v-342h-1051zM311 1825h206q33 0 49.5 -7t36.5 -27l216 -208h-142q-22 0 -34 3.5t-30 16.5z " />
<glyph unicode="&#xc9;" horiz-adv-x="1201" d="M69 0v88q0 32 30 38l117 24v1168q-98 19 -117 23q-31 6 -30 38v88h1051v-354h-98q-36 0 -43 36q-2 9 -14 157h-549v-488h540v-155h-540v-501h550q11 136 13 145q7 35 43 35h98v-342h-1051zM522 1583l216 208q10 10 19 16.5t18 10.5t20.5 5.5t28.5 1.5h206l-301 -221 q-17 -12 -30.5 -16.5t-34.5 -4.5h-142z" />
<glyph unicode="&#xca;" horiz-adv-x="1201" d="M69 0v88q0 32 30 38l117 24v1168q-98 19 -117 23q-31 6 -30 38v88h1051v-354h-98q-36 0 -43 36q-2 9 -14 157h-549v-488h540v-155h-540v-501h550q11 136 13 145q7 35 43 35h98v-342h-1051zM347 1583l244 215h180l244 -215h-138q-12 0 -26.5 3.5t-24.5 9.5l-133 98 q-8 4 -12 8q-8 -6 -12 -8l-133 -98q-9 -6 -23.5 -9.5t-27.5 -3.5h-138z" />
<glyph unicode="&#xcb;" horiz-adv-x="1201" d="M69 0v88q0 32 30 38l117 24v1168q-98 19 -117 23q-31 6 -30 38v88h1051v-354h-98q-36 0 -43 36q-2 9 -14 157h-549v-488h540v-155h-540v-501h550q11 136 13 145q7 35 43 35h98v-342h-1051zM351 1706q0 24 9.5 45t24.5 36t35 24.5t42 9.5q24 0 44.5 -9.5t36 -24.5t25 -36 t9.5 -45q0 -23 -9.5 -42.5t-25 -35t-36.5 -24.5t-44 -9q-22 0 -42 9t-35 24.5t-24.5 35t-9.5 42.5zM787 1706q0 24 9 45t24.5 36t36 24.5t43.5 9.5t43.5 -9.5t35.5 -24.5t24.5 -36t9.5 -45q0 -23 -9.5 -42.5t-24.5 -35t-35.5 -24.5t-43.5 -9q-24 0 -44 9t-35.5 24.5 t-24.5 35t-9 42.5z" />
<glyph unicode="&#xcc;" horiz-adv-x="689" d="M11 1825h206q33 0 49.5 -7t36.5 -27l216 -208h-142q-22 0 -34 3.5t-30 16.5zM132 0v88q0 32 31 38l117 24v1168q-98 19 -123 24.5t-25 36.5v88h495v-88q0 -32 -32 -38l-117 -23v-1168q99 -19 124 -24.5t25 -37.5v-88h-495z" />
<glyph unicode="&#xcd;" horiz-adv-x="675" d="M69 0v88q0 32 30 38l117 24v1168q-98 19 -122.5 24.5t-24.5 36.5v88h494v-88q0 -32 -32 -38l-116 -23v-1168q99 -19 123.5 -24.5t24.5 -37.5v-88h-494zM159 1583l216 208q10 10 18.5 16.5t18 10.5t20.5 5.5t29 1.5h206l-301 -221q-17 -12 -30.5 -16.5t-35.5 -4.5h-141z " />
<glyph unicode="&#xce;" horiz-adv-x="686" d="M10 1583l244 215h180l244 -215h-138q-12 0 -26.5 3.5t-24.5 9.5l-133 98q-8 4 -12 8q-8 -6 -12 -8l-133 -98q-9 -6 -23.5 -9.5t-27.5 -3.5h-138zM95 0v88q0 32 31 38l117 24v1168q-98 19 -123 24.5t-25 36.5v88h495v-88q0 -32 -32 -38l-117 -23v-1168q99 -19 124 -24.5 t25 -37.5v-88h-495z" />
<glyph unicode="&#xcf;" horiz-adv-x="681" d="M11 1706q0 24 9.5 45t24.5 36t35 24.5t42 9.5q24 0 44.5 -9.5t36 -24.5t25 -36t9.5 -45q0 -23 -9.5 -42.5t-25 -35t-36.5 -24.5t-44 -9q-22 0 -42 9t-35 24.5t-24.5 35t-9.5 42.5zM93 0v88q0 32 31 38l117 24v1168q-98 19 -123 24.5t-25 36.5v88h495v-88q0 -32 -32 -38 l-117 -23v-1168q99 -19 124 -24.5t25 -37.5v-88h-495zM447 1706q0 24 9 45t24.5 36t36 24.5t43.5 9.5t43.5 -9.5t35.5 -24.5t24.5 -36t9.5 -45q0 -23 -9.5 -42.5t-24.5 -35t-35.5 -24.5t-43.5 -9q-24 0 -44 9t-35.5 24.5t-24.5 35t-9 42.5z" />
<glyph unicode="&#xd0;" horiz-adv-x="1521" d="M16 682v117h201v519q-99 20 -116 23q-13 3 -22.5 13.5t-9.5 24.5v88h148h530q162 0 295 -52.5t228 -149.5t147.5 -232t52.5 -300t-52.5 -300t-147.5 -231.5t-228.5 -149t-294.5 -52.5h-530h-148v88q0 14 9 25t23 13l116 23v533h-201zM417 161h330q118 0 214 39t163.5 112 t104.5 179.5t37 241.5t-37 241.5t-104.5 180.5t-164 113t-213.5 39h-330v-508h390v-117h-390v-521z" />
<glyph unicode="&#xd1;" horiz-adv-x="1587" d="M69 0v88q0 32 30 38l117 24v1168q-98 19 -117 23q-31 6 -30 38v88h249q27 0 40 -6.5t29 -26.5l850 -1106q-5 44 -5 100v890q-120 20 -136 23q-31 6 -31 38v88h167h174h148v-88q0 -32 -31 -38l-117 -23v-1318h-100q-42 0 -71 36l-849 1105q4 -52 4 -95v-896 q121 -20 136 -24q31 -6 31 -38v-88h-488zM550 1585q0 44 11.5 81.5t33.5 64t54.5 42t72.5 15.5q36 0 68.5 -13.5t62.5 -29t56.5 -29t51.5 -13.5q36 0 54.5 21t19.5 59h101q0 -44 -11.5 -81t-33 -64t-53 -42t-72.5 -15q-36 0 -69 13.5t-63 29t-56.5 29t-51.5 13.5 q-35 0 -54 -22t-20 -59h-102z" />
<glyph unicode="&#xd2;" horiz-adv-x="1544" d="M46 733q0 165 52.5 303t147.5 237.5t228 155t295 55.5t295.5 -55.5t229 -155t147.5 -237.5t52 -303t-52 -302.5t-147.5 -237t-229 -154t-295.5 -54.5t-295 54.5t-228 154t-147.5 237t-52.5 302.5zM249 733q0 -135 37 -242t105 -181t164 -113.5t214 -39.5q119 0 215 39.5 t163.5 113.5t104.5 181t37 242t-37 242.5t-104.5 182t-163.5 114.5t-215 40q-118 0 -214 -40t-164 -114.5t-105 -182t-37 -242.5zM401 1825h206q33 0 49.5 -7t36.5 -27l216 -208h-142q-22 0 -34 3.5t-30 16.5z" />
<glyph unicode="&#xd3;" horiz-adv-x="1544" d="M46 733q0 165 52.5 303t147.5 237.5t228 155t295 55.5t295.5 -55.5t229 -155t147.5 -237.5t52 -303t-52 -302.5t-147.5 -237t-229 -154t-295.5 -54.5t-295 54.5t-228 154t-147.5 237t-52.5 302.5zM249 733q0 -135 37 -242t105 -181t164 -113.5t214 -39.5q119 0 215 39.5 t163.5 113.5t104.5 181t37 242t-37 242.5t-104.5 182t-163.5 114.5t-215 40q-118 0 -214 -40t-164 -114.5t-105 -182t-37 -242.5zM612 1583l216 208q10 10 19 16.5t18 10.5t20.5 5.5t28.5 1.5h206l-301 -221q-17 -12 -30.5 -16.5t-34.5 -4.5h-142z" />
<glyph unicode="&#xd4;" horiz-adv-x="1544" d="M46 733q0 165 52.5 303t147.5 237.5t228 155t295 55.5t295.5 -55.5t229 -155t147.5 -237.5t52 -303t-52 -302.5t-147.5 -237t-229 -154t-295.5 -54.5t-295 54.5t-228 154t-147.5 237t-52.5 302.5zM249 733q0 -135 37 -242t105 -181t164 -113.5t214 -39.5q119 0 215 39.5 t163.5 113.5t104.5 181t37 242t-37 242.5t-104.5 182t-163.5 114.5t-215 40q-118 0 -214 -40t-164 -114.5t-105 -182t-37 -242.5zM437 1583l244 215h180l244 -215h-138q-12 0 -26.5 3.5t-24.5 9.5l-133 98q-8 4 -12 8q-8 -6 -12 -8l-133 -98q-9 -6 -23.5 -9.5t-27.5 -3.5 h-138z" />
<glyph unicode="&#xd5;" horiz-adv-x="1544" d="M46 733q0 165 52.5 303t147.5 237.5t228 155t295 55.5t295.5 -55.5t229 -155t147.5 -237.5t52 -303t-52 -302.5t-147.5 -237t-229 -154t-295.5 -54.5t-295 54.5t-228 154t-147.5 237t-52.5 302.5zM249 733q0 -135 37 -242t105 -181t164 -113.5t214 -39.5q119 0 215 39.5 t163.5 113.5t104.5 181t37 242t-37 242.5t-104.5 182t-163.5 114.5t-215 40q-118 0 -214 -40t-164 -114.5t-105 -182t-37 -242.5zM484 1585q0 44 12 81.5t34 64t54 42t72 15.5q36 0 69 -13.5t62.5 -29t56 -29t51.5 -13.5q36 0 55 21t20 59h100q0 -44 -11 -81t-32.5 -64 t-53.5 -42t-73 -15q-36 0 -68.5 13.5t-63 29t-57 29t-51.5 13.5q-35 0 -53.5 -22t-19.5 -59h-103z" />
<glyph unicode="&#xd6;" horiz-adv-x="1544" d="M46 733q0 165 52.5 303t147.5 237.5t228 155t295 55.5t295.5 -55.5t229 -155t147.5 -237.5t52 -303t-52 -302.5t-147.5 -237t-229 -154t-295.5 -54.5t-295 54.5t-228 154t-147.5 237t-52.5 302.5zM249 733q0 -135 37 -242t105 -181t164 -113.5t214 -39.5q119 0 215 39.5 t163.5 113.5t104.5 181t37 242t-37 242.5t-104.5 182t-163.5 114.5t-215 40q-118 0 -214 -40t-164 -114.5t-105 -182t-37 -242.5zM441 1706q0 24 9.5 45t24.5 36t35 24.5t42 9.5q24 0 44.5 -9.5t36 -24.5t25 -36t9.5 -45q0 -23 -9.5 -42.5t-25 -35t-36.5 -24.5t-44 -9 q-22 0 -42 9t-35 24.5t-24.5 35t-9.5 42.5zM878 1706q0 24 8.5 45t24 36t36 24.5t43.5 9.5t43.5 -9.5t35.5 -24.5t24.5 -36t9.5 -45q0 -23 -9.5 -42.5t-24.5 -35t-35.5 -24.5t-43.5 -9q-24 0 -44 9t-35.5 24.5t-24 35t-8.5 42.5z" />
<glyph unicode="&#xd7;" horiz-adv-x="990" d="M34 323l364 364l-353 353l97 99l354 -355l352 353l98 -99l-352 -352l362 -361l-97 -99l-362 363l-366 -365z" />
<glyph unicode="&#xd8;" horiz-adv-x="1544" d="M46 733q0 165 52.5 303t147.5 237.5t228 155t295 55.5q118 0 220.5 -30t187.5 -85l84 114q20 28 36.5 39.5t49.5 11.5h102l-176 -241q105 -100 162.5 -242.5t57.5 -317.5q0 -165 -52 -302.5t-147.5 -237t-229 -154t-295.5 -54.5q-111 0 -207 25t-177 74l-102 -139 q-23 -30 -52.5 -43.5t-59.5 -13.5h-80l196 267q-115 100 -178 247.5t-63 330.5zM249 733q0 -138 38.5 -246t108.5 -183l675 921q-61 43 -137 65t-165 22q-118 0 -214 -40t-164 -114.5t-105 -182t-37 -242.5zM490 228q119 -72 279 -71q119 0 215 39.5t163.5 113.5t104.5 181 t37 242q0 129 -33 232t-95 177z" />
<glyph unicode="&#xd9;" horiz-adv-x="1533" d="M36 1379v88h513v-88q0 -32 -32 -38q-15 -3 -136 -23v-741q0 -187 102 -302q105 -118 284.5 -117.5t285.5 116.5q101 114 101 301v743q-120 20 -135 23q-32 6 -32 38v88h167h198h148v-88q0 -32 -32 -38l-116 -23v-743q0 -259 -156 -423q-161 -169 -428 -169 q-266 0 -428 169q-157 165 -157 423v743q-98 19 -116 23q-31 6 -31 38zM397 1825h206q33 0 49.5 -7t36.5 -27l216 -208h-142q-22 0 -34 3.5t-30 16.5z" />
<glyph unicode="&#xda;" horiz-adv-x="1533" d="M36 1379v88h513v-88q0 -32 -32 -38q-15 -3 -136 -23v-741q0 -187 102 -302q105 -118 284.5 -117.5t285.5 116.5q101 114 101 301v743q-120 20 -135 23q-32 6 -32 38v88h167h198h148v-88q0 -32 -32 -38l-116 -23v-743q0 -259 -156 -423q-161 -169 -428 -169 q-266 0 -428 169q-157 165 -157 423v743q-98 19 -116 23q-31 6 -31 38zM608 1583l216 208q10 10 19 16.5t18 10.5t20.5 5.5t28.5 1.5h206l-301 -221q-17 -12 -30.5 -16.5t-34.5 -4.5h-142z" />
<glyph unicode="&#xdb;" horiz-adv-x="1533" d="M36 1379v88h513v-88q0 -32 -32 -38q-15 -3 -136 -23v-741q0 -187 102 -302q105 -118 284.5 -117.5t285.5 116.5q101 114 101 301v743q-120 20 -135 23q-32 6 -32 38v88h167h198h148v-88q0 -32 -32 -38l-116 -23v-743q0 -259 -156 -423q-161 -169 -428 -169 q-266 0 -428 169q-157 165 -157 423v743q-98 19 -116 23q-31 6 -31 38zM433 1583l244 215h180l244 -215h-138q-12 0 -26.5 3.5t-24.5 9.5l-133 98q-8 4 -12 8q-8 -6 -12 -8l-133 -98q-9 -6 -23.5 -9.5t-27.5 -3.5h-138z" />
<glyph unicode="&#xdc;" horiz-adv-x="1533" d="M36 1379v88h513v-88q0 -32 -32 -38q-15 -3 -136 -23v-741q0 -187 102 -302q105 -118 284.5 -117.5t285.5 116.5q101 114 101 301v743q-120 20 -135 23q-32 6 -32 38v88h167h198h148v-88q0 -32 -32 -38l-116 -23v-743q0 -259 -156 -423q-161 -169 -428 -169 q-266 0 -428 169q-157 165 -157 423v743q-98 19 -116 23q-31 6 -31 38zM437 1706q0 24 9.5 45t24.5 36t35 24.5t42 9.5q24 0 44.5 -9.5t36 -24.5t25 -36t9.5 -45q0 -23 -9.5 -42.5t-25 -35t-36.5 -24.5t-44 -9q-22 0 -42 9t-35 24.5t-24.5 35t-9.5 42.5zM873 1706q0 24 9 45 t24.5 36t36 24.5t43.5 9.5t43.5 -9.5t35.5 -24.5t24.5 -36t9.5 -45q0 -23 -9.5 -42.5t-24.5 -35t-35.5 -24.5t-43.5 -9q-24 0 -44 9t-35.5 24.5t-24.5 35t-9 42.5z" />
<glyph unicode="&#xdd;" horiz-adv-x="1434" d="M39 1379v88h493v-88q0 -32 -31 -38q-104 -22 -116 -23l274 -467q33 -57 60 -130q28 78 58 130l275 467q-12 2 -117 23q-31 6 -31 38v88h494v-88q0 -32 -26 -37t-108 -24l-448 -734v-434q14 -3 117 -24q31 -6 31 -38v-88h-148h-198h-147v88q0 32 31 38l116 24v434 l-446 734q-76 18 -104.5 24t-28.5 37zM559 1583l216 208q10 10 19 16.5t18 10.5t20.5 5.5t28.5 1.5h206l-301 -221q-17 -12 -30.5 -16.5t-35.5 -4.5h-141z" />
<glyph unicode="&#xde;" horiz-adv-x="1137" d="M111 0v1467h197v-270h236q139 0 242 -32t170.5 -91.5t101 -143.5t33.5 -188q0 -102 -36 -187t-105 -146.5t-171.5 -95.5t-234.5 -34h-236v-279h-197zM308 436h236q85 0 150 22.5t109 63t66.5 97t22.5 123.5q0 140 -86.5 219t-261.5 79h-236v-604z" />
<glyph unicode="&#xdf;" horiz-adv-x="1111" d="M97 0v1016q0 106 35.5 193t101 149.5t157.5 96.5t205 34q105 0 182.5 -31t127.5 -78.5t74.5 -103.5t24.5 -109q0 -61 -22 -105t-55 -78t-71.5 -59.5t-71 -50t-54.5 -50.5t-22 -59q0 -40 27 -66.5t68 -49.5t88.5 -47t88.5 -60t68 -88.5t27 -132t-29 -142t-80.5 -106 t-120.5 -66.5t-150 -23q-99 0 -180 35t-142 91l42 69q8 13 19.5 20.5t29.5 7.5t38.5 -14.5t49 -32t66.5 -31.5t93 -14q45 0 80.5 13.5t61 37t38.5 56.5t13 71q0 57 -28.5 93t-71.5 62t-93 47.5t-93.5 51.5t-72 72.5t-28.5 109.5q0 54 23 94.5t57.5 73t74.5 60t74 58.5t57 67 t23 85q0 33 -12.5 66.5t-41.5 60t-74.5 43.5t-109.5 17q-70 0 -126.5 -21.5t-97 -64.5t-62.5 -107.5t-22 -150.5v-1010h-184z" />
<glyph unicode="&#xe0;" horiz-adv-x="1044" d="M44 225.5q0 98.5 34 155.5t108 101q172 100 496 101v81q0 247 -205 246q-117 0 -194.5 -54.5t-99.5 -54.5q-38 0 -89 92q171 165 332 165t228.5 -29t113.5 -80q93 -103 93 -283v-518q98 -19 115 -22.5t17 -35.5v-88h-213q-56 0 -64 43l-21 96q-173 -156 -297.5 -155.5 t-177 17t-91.5 50.5q-85 74 -85 172.5zM215 1484h173q34 0 50.5 -11t30.5 -34l153 -248h-105q-22 0 -35 6.5t-27 22.5zM219 270q0 -157 166.5 -156.5t296.5 139.5v214q-463 0 -463 -197z" />
<glyph unicode="&#xe1;" horiz-adv-x="1044" d="M44 225.5q0 98.5 34 155.5t108 101q172 100 496 101v81q0 247 -205 246q-117 0 -194.5 -54.5t-99.5 -54.5q-38 0 -89 92q171 165 332 165t228.5 -29t113.5 -80q93 -103 93 -283v-518q98 -19 115 -22.5t17 -35.5v-88h-213q-56 0 -64 43l-21 96q-173 -156 -297.5 -155.5 t-177 17t-91.5 50.5q-85 74 -85 172.5zM219 270q0 -157 166.5 -156.5t296.5 139.5v214q-463 0 -463 -197zM377 1191l151 248q14 24 31.5 34.5t49.5 10.5h178l-238 -264q-14 -15 -28 -22t-36 -7h-108z" />
<glyph unicode="&#xe2;" horiz-adv-x="1043" d="M44 225.5q0 98.5 34 155.5t108 101q172 100 496 101v81q0 247 -205 246q-117 0 -194.5 -54.5t-99.5 -54.5q-38 0 -89 92q171 165 332 165t228.5 -29t113.5 -80q93 -103 93 -283v-518q98 -19 115 -22.5t17 -35.5v-88h-213q-56 0 -64 43l-21 96q-173 -156 -297.5 -155.5 t-177 17t-91.5 50.5q-85 74 -85 172.5zM176 1197l228 270h170l229 -270h-122q-22 0 -41 14l-131 129l-17 18l-17 -18l-132 -129q-6 -5 -17.5 -9.5t-23.5 -4.5h-126zM219 270q0 -157 166.5 -156.5t296.5 139.5v214q-463 0 -463 -197z" />
<glyph unicode="&#xe3;" horiz-adv-x="1044" d="M44 225.5q0 98.5 34 155.5t108 101q172 100 496 101v81q0 247 -205 246q-117 0 -194.5 -54.5t-99.5 -54.5q-38 0 -89 92q171 165 332 165t228.5 -29t113.5 -80q93 -103 93 -283v-518q98 -19 115 -22.5t17 -35.5v-88h-213q-56 0 -64 43l-21 96q-173 -156 -297.5 -155.5 t-177 17t-91.5 50.5q-85 74 -85 172.5zM195 1231q0 49 13 89.5t37.5 69.5t58.5 45t74 16q36 0 67 -15t58.5 -32.5t51.5 -32t48 -14.5q37 0 57 21.5t21 66.5h111q0 -48 -13 -88.5t-37 -69.5t-57.5 -44.5t-74.5 -15.5q-36 0 -67 14.5t-58.5 32t-52 32.5t-48.5 15 q-74 0 -76 -90h-113zM219 270q0 -157 166.5 -156.5t296.5 139.5v214q-463 0 -463 -197z" />
<glyph unicode="&#xe4;" horiz-adv-x="1043" d="M44 225.5q0 98.5 34 155.5t108 101q172 100 496 101v81q0 247 -205 246q-117 0 -194.5 -54.5t-99.5 -54.5q-38 0 -89 92q171 165 332 165t228.5 -29t113.5 -80q93 -103 93 -283v-518q98 -19 115 -22.5t17 -35.5v-88h-213q-56 0 -64 43l-21 96q-173 -156 -297.5 -155.5 t-177 17t-91.5 50.5q-85 74 -85 172.5zM190 1319.5q0 23.5 9.5 45.5t25.5 37.5t36.5 25t42.5 9.5q24 0 45 -9.5t37 -25.5t25.5 -37.5t9.5 -45t-9.5 -44t-25.5 -35.5t-37 -24.5t-45 -9.5q-23 0 -43 9.5t-36 24.5t-25.5 35.5t-9.5 44zM219 270q0 -157 166.5 -156.5 t296.5 139.5v214q-463 0 -463 -197zM558 1319.5q0 23.5 9.5 45.5t24.5 37.5t36 25t44.5 9.5t44.5 -9.5t37 -25.5t25 -37.5t9 -45t-9 -44t-25 -35.5t-37 -24.5t-44.5 -9.5t-44.5 9.5t-36 24.5t-24.5 35.5t-9.5 44z" />
<glyph unicode="&#xe5;" horiz-adv-x="1043" d="M44 225.5q0 98.5 34 155.5t108 101q172 100 496 101v81q0 247 -205 246q-117 0 -194.5 -54.5t-99.5 -54.5q-38 0 -89 92q171 165 332 165t228.5 -29t113.5 -80q93 -103 93 -283v-518q98 -19 115 -22.5t17 -35.5v-88h-213q-56 0 -64 43l-21 96q-173 -156 -297.5 -155.5 t-177 17t-91.5 50.5q-85 74 -85 172.5zM219 270q0 -157 166.5 -156.5t296.5 139.5v214q-463 0 -463 -197zM286 1347q0 43 16 77.5t44.5 60t65.5 39.5t77 14q42 0 79.5 -14t66.5 -39.5t45 -60t16 -77.5q0 -42 -16 -77t-45 -59.5t-66.5 -38.5t-79.5 -14q-41 0 -77.5 14 t-65 38.5t-44.5 59.5t-16 77zM388 1347q0 -45 27.5 -74t76.5 -29q46 0 74 29t28 74q0 46 -28 74.5t-74 28.5q-48 0 -76 -28.5t-28 -74.5z" />
<glyph unicode="&#xe6;" horiz-adv-x="1591" d="M46 273q0 61 34 121t109 107t197 77t298 34v52q0 121 -51.5 185t-153.5 64q-67 0 -112 -17.5t-78.5 -39t-57.5 -39.5t-48 -18q-18 0 -32 9.5t-22 24.5l-33 58q86 83 179 124t208 41q123 0 198 -52.5t109 -145.5q55 90 143.5 143t212.5 53q84 0 156 -33t125 -95.5t83 -152 t30 -204.5q0 -42 -8 -56.5t-34 -14.5h-642q4 -93 27.5 -162.5t63 -115.5t93.5 -68.5t120 -22.5q71 0 118 15t78.5 33.5t50.5 33t36 14.5q14 0 23.5 -4.5t15.5 -12.5l48 -63q-34 -41 -78.5 -71t-95 -49.5t-105 -29t-107.5 -9.5q-120 0 -218 57.5t-154 176.5 q-28 -63 -72.5 -108t-98.5 -74t-115 -41.5t-121 -12.5q-71 0 -129.5 17.5t-101 53.5t-65.5 90.5t-23 127.5zM221 283q0 -89 51.5 -130t134.5 -41q58 0 108.5 18t88 56t59 94.5t21.5 132.5v85q-126 -5 -214 -23t-143.5 -47t-80.5 -65.5t-25 -79.5zM858 611h520 q0 67 -15.5 124t-46.5 97.5t-75.5 64t-101.5 23.5q-62 0 -111.5 -21t-85 -61t-56.5 -97.5t-28 -129.5z" />
<glyph unicode="&#xe7;" horiz-adv-x="925" d="M45 519q0 239 126 383q132 152 363 152q119 0 307 -77v-268h-82q-30 0 -35 28q-3 11 -8 77t-5 69q-47 14 -75 18q-59 10 -115.5 9t-113 -27t-96.5 -77q-79 -103 -79 -287q0 -185 82 -291q80 -101 221 -101q128 0 228 86q18 16 39.5 16t32.5 -17l51 -67 q-115 -141 -334 -157l-17 -60q92 -20 133.5 -55.5t41.5 -79.5t-16.5 -70t-45.5 -45q-60 -38 -161 -37q-79 0 -149 31l17 57q6 18 24 18q6 0 14.5 -3.5t19.5 -7.5q29 -12 68.5 -12t61.5 16.5t22 39.5t-11 36.5t-32 22.5q-35 15 -122 27l38 124q-158 20 -261 136 q-132 145 -132 393z" />
<glyph unicode="&#xe8;" horiz-adv-x="1003" d="M43 540q0 109 33.5 203t95.5 163t152 108.5t203 39.5q93 0 172 -31.5t136.5 -90.5t89.5 -145.5t32 -196.5q0 -43 -9 -57.5t-35 -14.5h-690q2 -98 26.5 -171t67.5 -121.5t102.5 -72.5t133.5 -24q69 0 118.5 16t85.5 34.5t60 34t41 15.5q23 0 35 -17l51 -67 q-34 -41 -81 -71t-100.5 -49.5t-111 -29t-113.5 -9.5q-108 0 -198.5 36t-156.5 106.5t-103 174t-37 237.5zM229 632h565q0 63 -17.5 116t-51.5 91.5t-83 59.5t-111 21q-132 0 -207.5 -76.5t-94.5 -211.5zM256 1484h173q34 0 50.5 -11t30.5 -34l153 -248h-105q-22 0 -35 6.5 t-27 22.5z" />
<glyph unicode="&#xe9;" horiz-adv-x="1003" d="M43 540q0 109 33.5 203t95.5 163t152 108.5t203 39.5q93 0 172 -31.5t136.5 -90.5t89.5 -145.5t32 -196.5q0 -43 -9 -57.5t-35 -14.5h-690q2 -98 26.5 -171t67.5 -121.5t102.5 -72.5t133.5 -24q69 0 118.5 16t85.5 34.5t60 34t41 15.5q23 0 35 -17l51 -67 q-34 -41 -81 -71t-100.5 -49.5t-111 -29t-113.5 -9.5q-108 0 -198.5 36t-156.5 106.5t-103 174t-37 237.5zM229 632h565q0 63 -17.5 116t-51.5 91.5t-83 59.5t-111 21q-132 0 -207.5 -76.5t-94.5 -211.5zM418 1191l151 248q14 24 31 34.5t50 10.5h178l-238 -264 q-14 -15 -28 -22t-36 -7h-108z" />
<glyph unicode="&#xea;" horiz-adv-x="1002" d="M42 540q0 109 33.5 203t95.5 163t152 108.5t203 39.5q93 0 172 -31.5t136.5 -90.5t89.5 -145.5t32 -196.5q0 -43 -9 -57.5t-35 -14.5h-690q2 -98 26.5 -171t67.5 -121.5t102.5 -72.5t133.5 -24q69 0 118.5 16t85.5 34.5t60 34t41 15.5q23 0 35 -17l51 -67 q-34 -41 -81 -71t-100.5 -49.5t-111 -29t-113.5 -9.5q-108 0 -198.5 36t-156.5 106.5t-103 174t-37 237.5zM216 1197l228 270h170l229 -270h-122q-22 0 -41 14l-131 129l-18 18l-16 -18l-132 -129q-6 -5 -17.5 -9.5t-23.5 -4.5h-126zM228 632h565q0 63 -17.5 116t-51.5 91.5 t-83 59.5t-111 21q-132 0 -207.5 -76.5t-94.5 -211.5z" />
<glyph unicode="&#xeb;" horiz-adv-x="1002" d="M42 540q0 109 33.5 203t95.5 163t152 108.5t203 39.5q93 0 172 -31.5t136.5 -90.5t89.5 -145.5t32 -196.5q0 -43 -9 -57.5t-35 -14.5h-690q2 -98 26.5 -171t67.5 -121.5t102.5 -72.5t133.5 -24q69 0 118.5 16t85.5 34.5t60 34t41 15.5q23 0 35 -17l51 -67 q-34 -41 -81 -71t-100.5 -49.5t-111 -29t-113.5 -9.5q-108 0 -198.5 36t-156.5 106.5t-103 174t-37 237.5zM228 632h565q0 63 -17.5 116t-51.5 91.5t-83 59.5t-111 21q-132 0 -207.5 -76.5t-94.5 -211.5zM230 1320q0 24 9.5 45.5t25.5 37t36.5 25t42.5 9.5q24 0 45 -9.5 t37 -25t25.5 -37.5t9.5 -45.5t-9.5 -44t-25.5 -35.5t-37 -24.5t-45 -9.5q-23 0 -43 9.5t-36 24.5t-25.5 35.5t-9.5 44.5zM598 1320q0 24 9 45.5t24.5 37t36.5 25t44.5 9.5t44.5 -9.5t37 -25t25 -37.5t9 -45.5t-9 -44t-25 -35.5t-37 -24.5t-44.5 -9.5t-44.5 9.5t-36.5 24.5 t-24.5 35.5t-9 44.5z" />
<glyph unicode="&#xec;" horiz-adv-x="595" d="M39 1484h173q33 0 49.5 -10t31.5 -35l152 -248h-104q-23 0 -35.5 6.5t-26.5 22.5zM68 0v88q0 9 4 17t11.5 14t16.5 7l116 23v739q-99 20 -116 23q-13 3 -22.5 13.5t-9.5 24.5v88h148h182v-888q99 -19 117 -23q13 -3 22 -13.5t9 -24.5v-88h-478z" />
<glyph unicode="&#xed;" horiz-adv-x="625" d="M65 0v88q0 14 8.5 25t22.5 13l116 23v739q-99 20 -116 23q-13 3 -22 13.5t-9 24.5v88h147h183v-888q98 -19 116 -23q13 -3 22 -13.5t9 -24.5v-88h-477zM197 1191l151 248q15 25 32 35t49 10h179l-239 -264q-14 -15 -27.5 -22t-36.5 -7h-108z" />
<glyph unicode="&#xee;" horiz-adv-x="651" d="M15 1197l229 270h170l228 -270h-122q-22 0 -41 14q-10 10 -64.5 64t-83.5 83q-28 -29 -82.5 -82.5t-66.5 -64.5q-17 -14 -41 -14h-126zM85 0v88q0 9 4 17t11 14t16 7l116 23v739q-99 20 -116 23q-13 3 -22 13.5t-9 24.5v88h147h183v-888q98 -19 116 -23q13 -3 22 -13.5 t9 -24.5v-88h-477z" />
<glyph unicode="&#xef;" horiz-adv-x="658" d="M35 1319.5q0 23.5 9 45t25 37.5t36.5 25.5t42.5 9.5q24 0 45 -9.5t37.5 -25.5t25.5 -37.5t9 -45t-9 -44t-25.5 -35.5t-37.5 -24.5t-45 -9.5q-23 0 -43 9.5t-36 24.5t-25 35.5t-9 44zM89 0v88q0 9 4 17t11 14t16 7l117 23v739q-99 20 -117 23q-13 3 -22 13.5t-9 24.5v88 h148h182v-888q98 -19 116 -23q13 -3 22.5 -13.5t9.5 -24.5v-88h-478zM402 1319.5q0 23.5 9.5 45t25 37.5t36.5 25.5t44.5 9.5t44.5 -9.5t36.5 -25.5t25 -37.5t9.5 -45t-9.5 -44t-25 -35.5t-36.5 -24.5t-44.5 -9.5t-44.5 9.5t-36.5 24.5t-25 35.5t-9.5 44z" />
<glyph unicode="&#xf0;" horiz-adv-x="1067" d="M42 477q0 96 31.5 181.5t91 150t144 102.5t191.5 38q102 0 192.5 -44t157.5 -133q-20 139 -80 236.5t-157 162.5l-188 -138l-34 58q-4 7 -6.5 13.5t-2.5 12.5q0 23 24 38l105 74q-46 20 -98 37.5t-110 31.5q-18 5 -31 19t-13 38q0 15 5 29l21 64q98 -16 190 -47t175 -80 l171 125l36 -58q8 -13 8 -25q0 -22 -22 -38l-100 -69q61 -50 112 -113.5t87 -142.5t56 -174t20 -208q0 -146 -32 -262.5t-95 -198.5t-156.5 -126t-216.5 -44q-100 0 -187 33.5t-151 96.5t-101 154t-37 206zM224 475q0 -83 23.5 -148t64.5 -109t95 -67t115 -23q73 0 132 27.5 t100.5 83.5t65 140.5t26.5 198.5q-16 44 -43 85.5t-65.5 73.5t-89 51t-113.5 19q-77 0 -135 -25.5t-97 -70t-59 -105.5t-20 -131z" />
<glyph unicode="&#xf1;" horiz-adv-x="1274" d="M66 0v88q0 32 30 38l117 24v738q-98 19 -117 23q-31 6 -30 38v88h147h109q39 0 49 -38l14 -112q152 167 344 167q168 0 259 -109q88 -104 88 -285v-510q99 -19 117 -24q32 -6 32 -38v-88h-331v660q0 248 -218 248q-152 0 -281 -144v-614q7 -1 117 -24q32 -6 32 -38v-88 h-478zM346 1231q0 49 13.5 89.5t38 69.5t58 45t73.5 16q36 0 67.5 -15t59 -32.5t51.5 -32t48 -14.5q37 0 57 21.5t21 66.5h110q0 -48 -12.5 -88.5t-37 -69.5t-57.5 -44.5t-74 -15.5q-36 0 -67 14.5t-59 32t-52.5 32.5t-47.5 15q-74 0 -76 -90h-114z" />
<glyph unicode="&#xf2;" horiz-adv-x="1078" d="M43 519q0 122 35 221t99.5 168.5t156 107.5t205 38t205.5 -38t156 -107.5t98 -168.5t34 -221q0 -123 -34 -221t-98 -168t-156 -107t-205.5 -37t-205 37t-156 107t-99.5 168t-35 221zM231 518q0 -92 19 -164.5t57.5 -122.5t96 -76.5t135.5 -26.5q154 0 229.5 103t75.5 287 q0 185 -76 288.5t-229 103.5q-78 0 -135.5 -26.5t-96 -76.5t-57.5 -123.5t-19 -165.5zM265 1484h173q34 0 50.5 -11t30.5 -34l153 -248h-105q-22 0 -35 6.5t-27 22.5z" />
<glyph unicode="&#xf3;" horiz-adv-x="1078" d="M44 519q0 122 35 221t99.5 168.5t156 107.5t205 38t205.5 -38t156 -107.5t98 -168.5t34 -221q0 -123 -34 -221t-98 -168t-156 -107t-205.5 -37t-205 37t-156 107t-99.5 168t-35 221zM232 518q0 -92 19 -164.5t57.5 -122.5t96 -76.5t135.5 -26.5q154 0 229.5 103t75.5 287 q0 185 -76 288.5t-229 103.5q-78 0 -135.5 -26.5t-96 -76.5t-57.5 -123.5t-19 -165.5zM428 1191l152 248q14 24 31 34.5t49 10.5h179l-239 -264q-14 -15 -28 -22t-35 -7h-109z" />
<glyph unicode="&#xf4;" horiz-adv-x="1077" d="M43 519q0 122 35 221t99.5 168.5t156 107.5t205 38t205.5 -38t156 -107.5t98 -168.5t34 -221q0 -123 -34 -221t-98 -168t-156 -107t-205.5 -37t-205 37t-156 107t-99.5 168t-35 221zM226 1197l229 270h170l228 -270h-122q-22 0 -41 14l-131 129l-17 18l-17 -18l-132 -129 q-6 -5 -17 -9.5t-24 -4.5h-126zM231 518q0 -92 19 -164.5t57.5 -122.5t96 -76.5t135.5 -26.5q154 0 229.5 103t75.5 287q0 185 -76 288.5t-229 103.5q-78 0 -135.5 -26.5t-96 -76.5t-57.5 -123.5t-19 -165.5z" />
<glyph unicode="&#xf5;" horiz-adv-x="1077" d="M43 519q0 122 35 221t99.5 168.5t156 107.5t205 38t205.5 -38t156 -107.5t98 -168.5t34 -221q0 -123 -34 -221t-98 -168t-156 -107t-205.5 -37t-205 37t-156 107t-99.5 168t-35 221zM231 518q0 -92 19 -164.5t57.5 -122.5t96 -76.5t135.5 -26.5q154 0 229.5 103t75.5 287 q0 185 -76 288.5t-229 103.5q-78 0 -135.5 -26.5t-96 -76.5t-57.5 -123.5t-19 -165.5zM245 1231q0 49 13 89.5t38 69.5t58.5 45t73.5 16q36 0 67 -15t59 -32.5t51.5 -32t47.5 -14.5q37 0 57 21.5t21 66.5h111q0 -48 -13 -88.5t-37 -69.5t-57.5 -44.5t-74.5 -15.5 q-36 0 -67 14.5t-58.5 32t-52 32.5t-48.5 15q-74 0 -76 -90h-113z" />
<glyph unicode="&#xf6;" horiz-adv-x="1077" d="M43 519q0 122 35 221t99.5 168.5t156 107.5t205 38t205.5 -38t156 -107.5t98 -168.5t34 -221q0 -123 -34 -221t-98 -168t-156 -107t-205.5 -37t-205 37t-156 107t-99.5 168t-35 221zM231 518q0 -92 19 -164.5t57.5 -122.5t96 -76.5t135.5 -26.5q154 0 229.5 103t75.5 287 q0 185 -76 288.5t-229 103.5q-78 0 -135.5 -26.5t-96 -76.5t-57.5 -123.5t-19 -165.5zM241 1320q0 24 9 45.5t25 37t36.5 25t42.5 9.5q24 0 45 -9.5t37.5 -25.5t25.5 -37.5t9 -45t-9 -44t-25.5 -35.5t-37.5 -24.5t-45 -9.5q-23 0 -43 9.5t-36 24.5t-25 35.5t-9 44.5z M608 1320q0 24 9.5 45.5t24.5 37t36 25t44.5 9.5t44.5 -9.5t37 -25.5t25.5 -37.5t9.5 -45t-9.5 -44t-25.5 -35.5t-37 -24.5t-44.5 -9.5t-44.5 9.5t-36 24.5t-24.5 35.5t-9.5 44.5z" />
<glyph unicode="&#xf7;" horiz-adv-x="1063" d="M39 618v139h981v-139h-981zM401 322q0 27 10 50t27 40.5t40 28t50 10.5t50 -10.5t40.5 -28t27.5 -41t10 -49.5q0 -28 -10 -51t-27.5 -40.5t-40.5 -27t-50 -9.5q-28 0 -50.5 9.5t-39.5 27t-27 40.5t-10 51zM401 1051q0 27 10 50t27 40.5t40 28t50 10.5t50 -10.5t40.5 -28 t27.5 -41t10 -49.5q0 -28 -10 -51t-27.5 -40.5t-40.5 -27t-50 -9.5q-28 0 -50.5 9.5t-39.5 27t-27 40.5t-10 51z" />
<glyph unicode="&#xf8;" horiz-adv-x="1101" d="M41 -78l148 201q-68 71 -103.5 170t-35.5 226q0 122 35 221t99.5 168.5t156 107.5t205.5 38q81 0 150 -19.5t126 -55.5l70 93q20 28 36.5 39.5t49.5 11.5h92l-161 -218q62 -70 96 -167.5t34 -218.5q0 -123 -34 -221t-98 -168t-156 -107t-205 -37q-78 0 -145 17t-122 50 l-57 -76q-23 -30 -53 -42.5t-59 -12.5h-69zM227 518q0 -164 61 -263l446 604q-75 57 -188 57q-78 0 -137.5 -27.5t-100 -78.5t-61 -125.5t-20.5 -166.5zM366 172q71 -49 180 -49q77 0 135.5 27t99 78.5t61 124.5t20.5 165q0 155 -53 253z" />
<glyph unicode="&#xf9;" horiz-adv-x="1239" d="M28 949v88h329v-661q0 -118 54 -182.5t164 -64.5q155 0 281 143v616q-17 4 -116 23q-32 6 -31 38v88h147h182v-887q99 -19 117 -24q32 -6 32 -38v-88h-257q-39 0 -49 38l-15 112q-150 -166 -344 -166q-166 0 -259 107q-88 102 -88 285v512q-98 19 -117 23q-31 6 -30 38z M340 1484h173q34 0 50.5 -11t30.5 -34l152 -248h-104q-22 0 -35 6.5t-27 22.5z" />
<glyph unicode="&#xfa;" horiz-adv-x="1238" d="M28 949v88h329v-661q0 -118 54 -182.5t164 -64.5q155 0 281 143v616q-17 4 -116 23q-32 6 -31 38v88h147h182v-887q99 -19 117 -24q32 -6 32 -38v-88h-257q-39 0 -49 38l-15 112q-150 -166 -344 -166q-166 0 -259 107q-88 102 -88 285v512q-98 19 -117 23q-31 6 -30 38z M502 1191l151 248q14 24 31 34.5t50 10.5h178l-238 -264q-14 -15 -28 -22t-36 -7h-108z" />
<glyph unicode="&#xfb;" horiz-adv-x="1238" d="M28 949v88h329v-661q0 -118 54 -182.5t164 -64.5q155 0 281 143v616q-17 4 -116 23q-32 6 -31 38v88h147h182v-887q99 -19 117 -24q32 -6 32 -38v-88h-257q-39 0 -49 38l-15 112q-150 -166 -344 -166q-166 0 -259 107q-88 102 -88 285v512q-98 19 -117 23q-31 6 -30 38z M301 1197l228 270h170l229 -270h-122q-22 0 -41 14l-131 129l-18 18l-16 -18l-132 -129q-6 -5 -17.5 -9.5t-23.5 -4.5h-126z" />
<glyph unicode="&#xfc;" horiz-adv-x="1238" d="M28 949v88h329v-661q0 -118 54 -182.5t164 -64.5q155 0 281 143v616q-17 4 -116 23q-32 6 -31 38v88h147h182v-887q99 -19 117 -24q32 -6 32 -38v-88h-257q-39 0 -49 38l-15 112q-150 -166 -344 -166q-166 0 -259 107q-88 102 -88 285v512q-98 19 -117 23q-31 6 -30 38z M315 1319.5q0 23.5 9.5 45.5t25.5 37.5t36.5 25t42.5 9.5q24 0 45 -9.5t37 -25.5t25.5 -37.5t9.5 -45t-9.5 -44t-25.5 -35.5t-37 -24.5t-45 -9.5q-23 0 -43 9.5t-36 24.5t-25.5 35.5t-9.5 44zM683 1319.5q0 23.5 9 45.5t24.5 37.5t36.5 25t44.5 9.5t44.5 -9.5t37 -25.5 t25 -37.5t9 -45t-9 -44t-25 -35.5t-37 -24.5t-44.5 -9.5t-44.5 9.5t-36.5 24.5t-24.5 35.5t-9 44z" />
<glyph unicode="&#xfd;" horiz-adv-x="1217" d="M28 949v88h465v-88q0 -32 -31 -38q-16 -4 -113 -22l231 -543q16 -41 27 -91q18 60 31 92l224 542q-83 16 -112 22.5t-29 37.5v88h385h75v-88q0 -32 -31 -38q-9 -2 -54 -11t-54 -10l-515 -1196q-20 -45 -65 -45h-135l189 411l-364 833q-75 14 -94 18q-31 6 -30 38z M508 1191l151 248q14 24 31.5 34.5t49.5 10.5h179l-239 -264q-14 -15 -28 -22t-36 -7h-108z" />
<glyph unicode="&#xfe;" horiz-adv-x="1072" d="M112 -351v1859h182v-621q65 76 148.5 121.5t191.5 45.5q89 0 161.5 -34t124 -101t79 -166t27.5 -228q0 -115 -30.5 -213.5t-88 -170.5t-141 -113.5t-187.5 -41.5q-97 0 -165 35t-120 100v-472h-182zM294 250q50 -68 110 -95.5t134 -27.5q144 0 222 103.5t78 294.5 q0 101 -18 174t-52 119.5t-83.5 68t-111.5 21.5q-89 0 -156 -41t-123 -115v-502z" />
<glyph unicode="&#xff;" horiz-adv-x="1217" d="M28 949v88h465v-88q0 -32 -31 -38q-16 -4 -113 -22l231 -543q16 -41 27 -91q18 60 31 92l224 542q-83 16 -112 22.5t-29 37.5v88h385h75v-88q0 -32 -31 -38q-9 -2 -54 -11t-54 -10l-515 -1196q-20 -45 -65 -45h-135l189 411l-364 833q-75 14 -94 18q-31 6 -30 38z M322 1320q0 24 9 45.5t25 37t36.5 25t42.5 9.5q24 0 45 -9.5t37.5 -25.5t25.5 -37.5t9 -45t-9 -44t-25.5 -35.5t-37.5 -24.5t-45 -9.5q-23 0 -43 9.5t-36 24.5t-25 35.5t-9 44.5zM689 1320q0 24 9.5 45.5t24.5 37t36 25t44.5 9.5t44.5 -9.5t37 -25.5t25.5 -37.5t9.5 -45 t-9.5 -44t-25.5 -35.5t-37 -24.5t-44.5 -9.5t-44.5 9.5t-36 24.5t-24.5 35.5t-9.5 44.5z" />
<glyph unicode="&#x152;" horiz-adv-x="2171" d="M47 733q0 165 47 303t133 237q181 211 471 211q165 0 295 -69t216 -193v245h881v-161v-193h-99q-35 0 -42 36q-3 10 -15 157h-549v-488h541v-155h-541v-501h550q11 136 14 145q7 35 42 35h99v-342h-881v246q-86 -123 -216 -191.5t-285 -68.5t-275 54.5t-206 153.5 t-133 236.5t-47 302.5zM250 733q0 -135 33 -243t94.5 -183.5t148 -115t193 -39.5t193 39.5t147.5 115t94 183.5t33 243t-33 243t-94 184t-147.5 116.5t-193 40.5t-193 -40.5t-148 -116.5t-94.5 -184t-33 -243z" />
<glyph unicode="&#x153;" horiz-adv-x="1716" d="M46 519q0 122 33 221t93.5 168.5t146 107.5t190.5 38q134 0 231.5 -62t151.5 -175q51 108 147 172.5t232 64.5q84 0 156 -33t125 -95.5t83 -152t30 -204.5q0 -42 -8 -56.5t-34 -14.5h-642q4 -93 27.5 -162.5t63 -115.5t93.5 -68.5t120 -22.5q62 0 108 16t78.5 34.5 t55.5 34t42 15.5q22 0 34 -17l52 -67q-34 -41 -78.5 -71t-95 -49.5t-105 -29t-107.5 -9.5q-122 0 -220 58.5t-154 180.5q-55 -115 -154 -177t-239 -62q-102 0 -186.5 37t-144 107t-92.5 168t-33 221zM234 518q0 -184 70.5 -287t214.5 -103q142 0 212 103t70 287 q0 92 -17.5 165.5t-52.5 123.5t-88 76.5t-124 26.5q-73 0 -126 -26.5t-88.5 -76.5t-53 -123.5t-17.5 -165.5zM983 611h520q0 67 -16 124t-46.5 97.5t-75 64t-100.5 23.5q-62 0 -111.5 -21t-85 -61t-57 -97.5t-28.5 -129.5z" />
<glyph unicode="&#x178;" horiz-adv-x="1434" d="M39 1379v88h493v-88q0 -32 -31 -38q-104 -22 -116 -23l274 -467q33 -57 60 -130q28 78 58 130l275 467q-12 2 -117 23q-31 6 -31 38v88h494v-88q0 -32 -26 -37t-108 -24l-448 -734v-434q14 -3 117 -24q31 -6 31 -38v-88h-148h-198h-147v88q0 32 31 38l116 24v434 l-446 734q-76 18 -104.5 24t-28.5 37zM388 1706q0 24 9.5 45t24.5 36t35 24.5t42 9.5q24 0 44.5 -9.5t36 -24.5t24.5 -36t9 -45q0 -23 -9 -42.5t-24.5 -35t-36.5 -24.5t-44 -9q-22 0 -42 9t-35 24.5t-24.5 35t-9.5 42.5zM824 1706q0 24 9 45t24 36t35.5 24.5t44.5 9.5 q23 0 43 -9.5t35.5 -24.5t25 -36t9.5 -45q0 -23 -9.5 -42.5t-25 -35t-36 -24.5t-42.5 -9q-24 0 -44.5 9t-35.5 24.5t-24 35t-9 42.5z" />
<glyph unicode="&#x2c6;" horiz-adv-x="770" d="M72 1197l228 270h170l228 -270h-121q-22 0 -41 14l-132 129l-17 18l-16 -18l-132 -129q-6 -5 -17.5 -9.5t-23.5 -4.5h-126z" />
<glyph unicode="&#x2dc;" horiz-adv-x="768" d="M87 1231q0 49 13.5 89.5t38 69.5t58 45t73.5 16q36 0 67.5 -15t59 -32.5t51.5 -32t48 -14.5q37 0 56.5 21.5t20.5 66.5h111q0 -48 -13 -88.5t-37 -69.5t-57 -44.5t-74 -15.5q-36 0 -67.5 14.5t-59 32t-52 32.5t-48.5 15q-74 0 -75 -90h-114z" />
<glyph unicode="&#x2000;" horiz-adv-x="940" />
<glyph unicode="&#x2001;" horiz-adv-x="1881" />
<glyph unicode="&#x2002;" horiz-adv-x="940" />
<glyph unicode="&#x2003;" horiz-adv-x="1881" />
<glyph unicode="&#x2004;" horiz-adv-x="627" />
<glyph unicode="&#x2005;" horiz-adv-x="470" />
<glyph unicode="&#x2006;" horiz-adv-x="313" />
<glyph unicode="&#x2007;" horiz-adv-x="313" />
<glyph unicode="&#x2008;" horiz-adv-x="235" />
<glyph unicode="&#x2009;" horiz-adv-x="376" />
<glyph unicode="&#x200a;" horiz-adv-x="104" />
<glyph unicode="&#x2010;" horiz-adv-x="699" d="M97 537v154h506v-154h-506z" />
<glyph unicode="&#x2011;" horiz-adv-x="699" d="M97 537v154h506v-154h-506z" />
<glyph unicode="&#x2012;" horiz-adv-x="699" d="M97 537v154h506v-154h-506z" />
<glyph unicode="&#x2013;" horiz-adv-x="1012" d="M97 538v133h819v-133h-819z" />
<glyph unicode="&#x2014;" horiz-adv-x="1555" d="M97 538v133h1362v-133h-1362z" />
<glyph unicode="&#x2018;" horiz-adv-x="390" d="M82 1234q0 92 45.5 176.5t127.5 155.5l56 -35q8 -5 11 -11.5t3 -12.5q0 -14 -11 -24q-16 -20 -31.5 -43t-27.5 -48t-19.5 -52.5t-7.5 -58.5q0 -33 10 -67.5t33 -73.5q7 -11 8 -24q0 -25 -28 -35l-112 -45q-30 49 -43.5 99t-13.5 99z" />
<glyph unicode="&#x2019;" horiz-adv-x="389" d="M70 1073q0 14 10 25q16 19 31.5 42t28 48t19.5 53t7 58q0 33 -10 68t-33 74q-7 11 -7 22q0 25 27 36l112 45q30 -49 43 -98t13 -98q0 -93 -45.5 -178t-126.5 -155l-56 35q-8 5 -10.5 11t-2.5 12z" />
<glyph unicode="&#x201a;" horiz-adv-x="404" d="M79 -224q0 14 10 24q16 19 31.5 42.5t28 48.5t19.5 52.5t7 58.5q0 33 -9.5 67.5t-33.5 73.5q-7 11 -7 23q0 25 28 36l111 45q30 -49 43.5 -98.5t13.5 -98.5q0 -93 -46 -177.5t-127 -155.5l-56 35q-8 5 -10.5 11.5t-2.5 12.5z" />
<glyph unicode="&#x201c;" horiz-adv-x="701" d="M82 1234q0 92 45.5 176.5t127.5 155.5l56 -35q8 -5 11 -11.5t3 -12.5q0 -14 -11 -24q-16 -20 -31.5 -43t-27.5 -48t-19.5 -52.5t-7.5 -58.5q0 -33 10 -67.5t33 -73.5q7 -11 8 -24q0 -25 -28 -35l-112 -45q-30 49 -43.5 99t-13.5 99zM393 1234q0 92 45.5 176.5 t127.5 155.5l57 -35q8 -5 10.5 -11.5t2.5 -12.5q0 -14 -10 -24q-16 -20 -31.5 -43t-28 -48t-19.5 -52.5t-7 -58.5q0 -33 9.5 -67.5t33.5 -73.5q7 -11 7 -24q0 -25 -28 -35l-111 -45q-30 49 -44 99t-14 99z" />
<glyph unicode="&#x201d;" horiz-adv-x="700" d="M70 1073q0 14 10 25q16 19 31.5 42t28 48t19.5 53t7 58q0 33 -10 68t-33 74q-7 11 -7 22q0 25 27 36l112 45q30 -49 43 -98t13 -98q0 -93 -45.5 -178t-126.5 -155l-56 35q-8 5 -10.5 11t-2.5 12zM381 1073q0 14 10 25q16 19 31.5 42t28 48t19.5 53t7 58q0 33 -9.5 68 t-33.5 74q-7 11 -7 22q0 25 28 36l111 45q30 -49 43.5 -98t13.5 -98q0 -93 -46 -178t-126 -155l-57 35q-8 5 -10.5 11t-2.5 12z" />
<glyph unicode="&#x201e;" horiz-adv-x="715" d="M79 -224q0 14 10 24q16 19 31.5 42.5t28 48.5t19.5 52.5t7 58.5q0 33 -9.5 67.5t-33.5 73.5q-7 11 -7 23q0 25 28 36l111 45q30 -49 43.5 -98.5t13.5 -98.5q0 -93 -46 -177.5t-127 -155.5l-56 35q-8 5 -10.5 11.5t-2.5 12.5zM390 -224q0 14 10 24q16 19 31.5 42.5 t28 48.5t19.5 52.5t7 58.5q0 33 -9.5 67.5t-33.5 73.5q-7 11 -7 23q0 25 28 36l111 45q30 -49 43.5 -98.5t13.5 -98.5q0 -93 -45.5 -177.5t-126.5 -155.5l-57 35q-8 5 -10.5 11.5t-2.5 12.5z" />
<glyph unicode="&#x2022;" horiz-adv-x="914" d="M78 609q0 79 30 148.5t81.5 121.5t120.5 82t147 30q79 0 148.5 -30t121 -82t82 -121.5t30.5 -148.5t-30.5 -148t-82 -120t-121 -81.5t-148.5 -30.5q-78 0 -147 30.5t-120.5 81.5t-81.5 120t-30 148z" />
<glyph unicode="&#x2026;" horiz-adv-x="1485" d="M91 113q0 27 10 50t26.5 40.5t40 28t50.5 10.5t50.5 -10.5t41 -28t27 -41t9.5 -49.5q0 -28 -9.5 -51t-27 -40.5t-41 -27t-50.5 -9.5t-50.5 9.5t-40 27t-26.5 40.5t-10 51zM617 113q0 27 10 50t27 40.5t40.5 28t50 10.5t50 -10.5t41 -28t27 -41t9.5 -49.5q0 -28 -9.5 -51 t-27 -40.5t-41 -27t-50 -9.5t-50 9.5t-40.5 27t-27 40.5t-10 51zM1145 113q0 27 9.5 50t26.5 40.5t40.5 28t50 10.5t50.5 -10.5t41 -28t27 -41t10 -49.5q0 -28 -10 -51t-27 -40.5t-41 -27t-50.5 -9.5t-50 9.5t-40.5 27t-26.5 40.5t-9.5 51z" />
<glyph unicode="&#x202f;" horiz-adv-x="376" />
<glyph unicode="&#x2039;" horiz-adv-x="483" d="M67 530v24l255 398l59 -28q14 -7 21.5 -18.5t7.5 -24.5q0 -17 -11 -34l-162 -267q-14 -25 -29 -38q15 -14 29 -37l162 -267q5 -8 8 -17.5t3 -17.5q0 -29 -29 -42l-59 -29z" />
<glyph unicode="&#x203a;" horiz-adv-x="487" d="M79 203q0 17 10 35l163 267q13 25 28 37q-12 11 -28 38l-163 267q-10 17 -10 35q0 29 29 42l59 28l255 -398v-24l-255 -398l-59 29q-29 13 -29 42z" />
<glyph unicode="&#x205f;" horiz-adv-x="470" />
<glyph unicode="&#x20ac;" horiz-adv-x="1235" d="M60 566v105h138q-1 15 -1 30v32q0 20 0.5 41.5t1.5 41.5h-139v105h151q20 129 69 232.5t121 177t166.5 112.5t204.5 39q137 0 234.5 -51.5t169.5 -141.5l-63 -69q-8 -9 -16 -16t-23 -7q-17 0 -36 19.5t-51 43t-81.5 43t-126.5 19.5q-150 0 -248.5 -102.5t-131.5 -298.5 h560v-57q0 -18 -13.5 -33t-38.5 -15h-520q-1 -20 -1.5 -40.5t-0.5 -42.5v-32q0 -15 1 -30h478v-58q0 -17 -14 -32t-39 -15h-416q29 -211 127.5 -316.5t247.5 -105.5q55 0 97 11t73 27.5t53 35.5t38.5 35t29 27t24.5 11q8 0 14.5 -3.5t14.5 -11.5l77 -71 q-72 -104 -178.5 -162t-252.5 -58q-119 0 -214 40.5t-165 115.5t-114.5 183t-60.5 242h-146z" />
<glyph unicode="&#x2122;" horiz-adv-x="1451" d="M67 1360v107h497v-107h-184v-499h-129v499h-184zM663 861v606h108q17 0 24.5 -4t18.5 -17l173 -310q6 -14 12 -27t10 -28q5 14 9 27t12 28l173 310q9 13 17.5 17t24.5 4h109v-606h-113v374l9 77l-187 -344q-13 -29 -45 -29h-19q-32 0 -44 29l-188 341l8 -74v-374h-112z " />
<glyph unicode="&#xe000;" horiz-adv-x="1035" d="M0 1035h1035v-1035h-1035v1035z" />
<glyph unicode="&#xfb01;" horiz-adv-x="1222" d="M58 942v75h164v57q0 197 119 311q121 117 354 121q191 0 315 -95q57 -41 57 -107q0 -51 -40 -91q-38 -39 -78 -38.5t-63 10.5t-41 28q-38 38 -38 91q0 22 6 41q-95 34 -188 15t-143 -65q-83 -76 -83 -226v-52h627v-867l117 -24q31 -6 31 -38v-88h-330v885h-438v-735 q122 -20 136 -24q31 -6 30 -38v-88h-166h-184h-159v88q0 32 32 38q11 2 127 24v732l-114 13q-49 11 -50 47zM695 0v88q0 32 32 38l117 24v-150h-149z" />
<glyph unicode="&#xfb02;" horiz-adv-x="1340" d="M58 935v82h164v55q0 183 107 298q115 125 319 125l316 -12h102v-1204q1 -81 34.5 -118.5t112.5 -37.5h41q14 0 23 -3q7 -4 9 -17l8 -98q-55 -20 -125 -20q-142 0 -217 86q-69 77 -68 210v1078h-208q-133 0 -205 -76t-72 -212v-54h271v-132h-264v-734q122 -20 136 -24 q31 -6 30 -38v-88h-166h-184h-159v88q0 32 32 38q4 1 127 24v717l-114 16q-49 11 -50 51z" />
<glyph unicode="&#xfb03;" horiz-adv-x="2114" d="M1587 0v88q0 14 8.5 25t22.5 13l116 23v739q-99 20 -116 23q-13 3 -22 13.5t-9 24.5v88h330v-888q98 -19 116 -23q13 -3 22 -13.5t9 -24.5v-88h-477zM1697 1363q0 27 10.5 51t28.5 41.5t41 28t49.5 10.5t50 -10t41.5 -28t28.5 -42t10.5 -51t-10.5 -50t-28.5 -41 t-41.5 -28t-50 -10t-49.5 10t-41 28t-28.5 41t-10.5 50zM819 942v75h164v100q0 176 96 276q95 96 261 96q70 0 129 -21l-5 -91q-1 -20 -17 -24t-46 -4h-32q-209 0 -209 -237v-95h300v-132h-293v-735q121 -20 136 -24q31 -6 30 -38v-88h-509v88q0 32 32 38l127 24v732 l-114 13q-49 11 -50 47zM58 942v75h164v100q0 176 96 276q95 96 261 96q70 0 129 -21l-5 -91q-1 -20 -17 -24t-46 -4h-32q-209 0 -209 -237v-95h300v-132h-293v-735q121 -20 136 -24q31 -6 30 -38v-88h-509v88q0 32 32 38l127 24v732l-114 13q-49 11 -50 47z" />
<glyph unicode="&#xfb04;" horiz-adv-x="2115" d="M1589 0v88q0 32 30 38l117 24v1209q-98 19 -117 23q-31 6 -30 38v88h329v-1358q100 -20 117 -24q32 -6 32 -38v-88h-478zM819 942v75h164v100q0 176 96 276q95 96 261 96q70 0 129 -21l-5 -91q-1 -20 -17 -24t-46 -4h-32q-209 0 -209 -237v-95h300v-132h-293v-735 q121 -20 136 -24q31 -6 30 -38v-88h-509v88q0 32 32 38l127 24v732l-114 13q-49 11 -50 47zM58 942v75h164v100q0 176 96 276q95 96 261 96q70 0 129 -21l-5 -91q-1 -20 -17 -24t-46 -4h-32q-209 0 -209 -237v-95h300v-132h-293v-735q121 -20 136 -24q31 -6 30 -38v-88h-509 v88q0 32 32 38l127 24v732l-114 13q-49 11 -50 47z" />
</font>
</defs>
</svg>
